<?xml version="1.0" standalone="no"?>
<!DOCTYPE svg PUBLIC "-//W3C//DTD SVG 1.1//EN" "http://www.w3.org/Graphics/SVG/1.1/DTD/svg11.dtd" >
<svg xmlns="http://www.w3.org/2000/svg" xmlns:xlink="http://www.w3.org/1999/xlink" version="1.1">
<metadata>
Created by FontForge 20170731 at Tue Mar 27 18:01:14 2018
 By Aleksey,,,
(c) 2017 by Boutros International. All rights reserved.
</metadata>
<defs>
<font id="Tajawal-Regular" horiz-adv-x="0" >
  <font-face 
    font-family="Tajawal"
    font-weight="400"
    font-stretch="normal"
    units-per-em="1000"
    panose-1="0 0 5 0 0 0 0 0 0 0"
    ascent="643"
    descent="-357"
    x-height="454"
    cap-height="633"
    bbox="-93 -375 1402 995"
    underline-thickness="50"
    underline-position="-150"
    unicode-range="U+0020-FEFC"
  />
<missing-glyph horiz-adv-x="240" 
d="M24 0v633h192v-633h-192zM192 24v585h-144v-585h144z" />
    <glyph glyph-name="ff" unicode="ff" horiz-adv-x="671" 
d="M442 400h-269v-400h-66v400h-65v54h65v66q0 59 29 92t82 33q54 0 103 -34l-24 -37q-33 17 -65 17q-59 0 -59 -74v-63h269v66q0 59 29.5 92t81.5 33q55 0 103 -34l-23 -37q-33 17 -65 17q-59 0 -59 -74v-63h113v-54h-113v-400h-67v400z" />
    <glyph glyph-name="fi" unicode="fi" horiz-adv-x="568" 
d="M418 400h-245v-400h-66v400h-65v54h65v66q0 59 29 92t82 33q54 0 103 -34l-24 -37q-33 17 -65 17q-59 0 -59 -74v-63h312v-454h-67v400zM409 602q0 17 12.5 30t30.5 13t31 -13t13 -30q0 -19 -12.5 -31.5t-31.5 -12.5q-18 0 -30.5 12.5t-12.5 31.5z" />
    <glyph glyph-name="fl" unicode="fl" horiz-adv-x="558" 
d="M42 454h65v66q0 59 29 92t82 33q54 0 103 -34l-24 -37q-33 17 -65 17q-59 0 -59 -74v-63h114v-54h-114v-400h-66v400h-65v54zM480 645v-645h-66v609z" />
    <glyph glyph-name="ffi" unicode="ffi" horiz-adv-x="903" 
d="M442 400h-269v-400h-66v400h-65v54h65v66q0 59 29 92t82 33q54 0 103 -34l-24 -37q-33 17 -65 17q-59 0 -59 -74v-63h269v66q0 59 29.5 92t81.5 33q55 0 103 -34l-23 -37q-33 17 -65 17q-59 0 -59 -74v-63h311v-454h-66v400h-245v-400h-67v400zM744 602q0 17 13 30t31 13
t31 -13t13 -30q0 -19 -13 -31.5t-31 -12.5q-19 0 -31.5 12.5t-12.5 31.5z" />
    <glyph glyph-name="uniFDF2" unicode="&#x627;&#xfedf;&#xfee0;&#xfeea;" horiz-adv-x="1382" arabic-form="isolated" 
d="M700 995v-126l-38 -21v126zM681 688q-16 -15 -42 -15t-43 16.5t-17 41.5v25l38 21v-45q0 -22 23 -22q22 0 22 19v40l38 21v-61q0 -19 22 -19t22 22v47l38 21v-69q0 -25 -17 -41.5t-43 -16.5t-41 15zM978 544l67 35v-400q0 -85 -50 -134q-47 -45 -124 -45h-55
q-90 0 -137 63q-47 -63 -139 -63h-55q-105 0 -148 82q-52 -55 -129 -55q-86 0 -136 65q-42 55 -42 137q0 96 56 154q49 50 121 50q65 0 109 -38v54l67 36v-309q0 -114 111 -114h39q114 0 114 118v364l67 35v-403q0 -114 110 -114h40q114 0 114 118v364zM316 320
q-44 52 -107 52q-50 0 -81.5 -40t-31.5 -104q0 -65 31.5 -104t82.5 -39q66 0 108 56q-2 22 -2 33v146zM1225 0v610l67 35v-645h-67z" />
    <glyph glyph-name="uniFEF5" unicode="&#xfedf;&#xfe82;" horiz-adv-x="611" arabic-form="isolated" 
d="M455 610l66 35v-466q0 -85 -50 -134q-46 -45 -123 -45h-328l32 62h153v418l66 35v-453h70q114 0 114 118v430zM340 620q-30 -48 -66 -48q-23 0 -54 21q-22 15 -34 15q-18 0 -41 -32l-26 19q31 49 66 49q20 0 48 -19q24 -17 40 -17t41 31z" />
    <glyph glyph-name="uniFEF6" unicode="&#xfee0;&#xfe82;" horiz-adv-x="657" arabic-form="final" 
d="M632 62h35v-62h-43q-92 0 -137 63q-47 -63 -139 -63h-328l32 62h153v418l66 35v-453h70q114 0 114 118v430l66 35v-218l1 1v-252q0 -114 110 -114zM340 620q-30 -48 -66 -48q-23 0 -54 21q-22 15 -34 15q-18 0 -41 -32l-26 19q31 49 66 49q20 0 48 -19q24 -17 40 -17
t41 31z" />
    <glyph glyph-name="uniFEF7" unicode="&#xfedf;&#xfe84;" horiz-adv-x="611" arabic-form="isolated" 
d="M313 633l-19 -36h-155l19 36h26q-10 18 -10 36q0 28 21 48.5t50 20.5q22 0 43 -13v-38q-20 15 -39 15q-16 0 -27 -10.5t-11 -24.5q0 -17 14 -34h88zM455 610l66 35v-466q0 -85 -50 -134q-46 -45 -123 -45h-328l32 62h153v418l66 35v-453h70q114 0 114 118v430z" />
    <glyph glyph-name="uniFEF8" unicode="&#xfee0;&#xfe84;" horiz-adv-x="657" arabic-form="final" 
d="M313 633l-19 -36h-155l19 36h26q-10 18 -10 36q0 28 21 48.5t50 20.5q22 0 43 -13v-38q-20 15 -39 15q-16 0 -27 -10.5t-11 -24.5q0 -17 14 -34h88zM632 62h35v-62h-43q-92 0 -137 63q-47 -63 -139 -63h-328l32 62h153v418l66 35v-453h70q114 0 114 118v430l66 35v-218
l1 1v-252q0 -114 110 -114z" />
    <glyph glyph-name="uniFEF9" unicode="&#xfedf;&#xfe88;" horiz-adv-x="611" arabic-form="isolated" 
d="M455 610l66 35v-466q0 -85 -50 -134q-46 -45 -123 -45h-328l32 62h153v418l66 35v-453h70q114 0 114 118v430zM288 -136q-20 15 -39 15q-16 0 -27 -10.5t-11 -24.5q0 -17 14 -34h88l-19 -36h-155l19 36h26q-10 18 -10 36q0 28 21 48.5t50 20.5q22 0 43 -13v-38z" />
    <glyph glyph-name="uniFEFA" unicode="&#xfee0;&#xfe88;" horiz-adv-x="657" arabic-form="final" 
d="M632 62h35v-62h-43q-92 0 -137 63q-47 -63 -139 -63h-328l32 62h153v418l66 35v-453h70q114 0 114 118v430l66 35v-218l1 1v-252q0 -114 110 -114zM288 -136q-20 15 -39 15q-16 0 -27 -10.5t-11 -24.5q0 -17 14 -34h88l-19 -36h-155l19 36h26q-10 18 -10 36q0 28 21 48.5
t50 20.5q22 0 43 -13v-38z" />
    <glyph glyph-name="uniFEFB" unicode="&#xfedf;&#xfe8e;" horiz-adv-x="611" arabic-form="isolated" 
d="M455 610l66 35v-466q0 -85 -50 -134q-46 -45 -123 -45h-328l32 62h153v418l66 35v-453h70q114 0 114 118v430z" />
    <glyph glyph-name="uniFEFC" unicode="&#xfee0;&#xfe8e;" horiz-adv-x="657" arabic-form="final" 
d="M632 62h35v-62h-43q-92 0 -137 63q-47 -63 -139 -63h-328l32 62h153v418l66 35v-453h70q114 0 114 118v430l66 35v-218l1 1v-252q0 -114 110 -114z" />
    <glyph glyph-name="uniFB57" unicode="&#x67e;" horiz-adv-x="914" arabic-form="final" 
d="M889 62h35v-62h-43q-90 0 -135 61q-47 -61 -137 -61h-357q-74 0 -118 46.5t-44 125.5v131l67 35v-158q0 -118 110 -118h335q110 0 110 118v213l67 35v-252q0 -114 110 -114zM423 -147q0 -40 -39 -40q-41 0 -41 40q0 42 41 42q39 0 39 -42zM498 -105q39 0 39 -42
q0 -40 -39 -40q-41 0 -41 40q0 42 41 42zM440 -210q36 0 36 -37t-36 -37q-37 0 -37 37t37 37z" />
    <glyph glyph-name="uniFB58" unicode="&#x67e;" horiz-adv-x="292" arabic-form="initial" 
d="M-10 0v62h35q110 0 110 114v217l67 35v-254q0 -84 -49 -131q-45 -43 -120 -43h-43zM26 -187q-41 0 -41 41t41 41q39 0 39 -41t-39 -41zM140 -187q-41 0 -41 41t41 41q39 0 39 -41t-39 -41zM82 -283q-36 0 -36 36q0 38 36 38t36 -38q0 -36 -36 -36z" />
    <glyph glyph-name="uniFB59" unicode="&#x67e;" horiz-adv-x="337" arabic-form="medial" 
d="M312 62h35v-62h-43q-90 0 -135 61q-47 -61 -136 -61h-43v62h35q110 0 110 114v217l67 35v-252q0 -114 110 -114zM94 -146q0 -41 -40 -41t-40 41t40 41t40 -41zM168 -105q40 0 40 -41t-40 -41t-40 41t40 41zM111 -209q35 0 35 -38q0 -36 -35 -36q-37 0 -37 36q0 38 37 38z
" />
    <glyph glyph-name="uniFB6B" unicode="&#x6a4;" horiz-adv-x="955" arabic-form="final" 
d="M686 662q-37 0 -37 38q0 37 37 37q36 0 36 -37q0 -38 -36 -38zM630 558q-41 0 -41 42q0 40 41 40q39 0 39 -40q0 -42 -39 -42zM703 600q0 40 41 40q39 0 39 -40q0 -42 -39 -42q-41 0 -41 42zM790 62h175v-62h-218q-34 0 -62 7q-28 -7 -62 -7h-371q-74 0 -118 46.5
t-44 125.5v131l67 35v-158q0 -118 110 -118h313q-78 72 -78 173q0 97 54 154q49 51 129 51q91 0 141 -66q42 -55 42 -139q0 -101 -78 -173zM689 71q51 18 83 64t32 101q0 66 -32 104.5t-87 38.5t-87.5 -38.5t-32.5 -103.5q0 -55 32.5 -101.5t83.5 -64.5l4 -1l2 1h2z" />
    <glyph glyph-name="uniFB6C" unicode="&#x6a4;" horiz-adv-x="538" arabic-form="initial" 
d="M284 662q-37 0 -37 38q0 37 37 37q36 0 36 -37q0 -38 -36 -38zM228 558q-41 0 -41 42q0 40 41 40q39 0 39 -40q0 -42 -39 -42zM342 558q-41 0 -41 42q0 40 41 40q39 0 39 -40q0 -42 -39 -42zM-10 0v62h170q-55 55 -55 158q0 108 56 167q49 53 130 53q83 0 128 -52
q39 -45 39 -120v-97q-1 -81 -49 -127q-44 -44 -120 -44h-299zM392 262q0 117 -101 117q-56 0 -87.5 -41.5t-31.5 -116.5q0 -73 30.5 -116t81.5 -43q108 0 108 112v88z" />
    <glyph glyph-name="uniFB6D" unicode="&#x6a4;" horiz-adv-x="556" arabic-form="medial" 
d="M284 662q-37 0 -37 38q0 37 37 37q36 0 36 -37q0 -38 -36 -38zM228 558q-41 0 -41 42q0 40 41 40q39 0 39 -40q0 -42 -39 -42zM301 600q0 40 41 40q39 0 39 -40q0 -42 -39 -42q-41 0 -41 42zM383 62h183v-62h-226q-34 0 -62 7q-28 -7 -62 -7h-226v62h184q-79 73 -79 173
q0 97 54 154q49 51 129 51q91 0 141 -66q42 -55 42 -139q0 -101 -78 -173zM282 71q51 18 83.5 64.5t32.5 100.5q0 66 -32.5 104.5t-87.5 38.5t-87 -38.5t-32 -103.5q0 -55 32 -101.5t83 -64.5l4 -1l2 1h2z" />
    <glyph glyph-name="uniFBE8" unicode="&#x649;" horiz-adv-x="292" arabic-form="initial" 
d="M-10 0v62h35q110 0 110 114v217l67 35v-254q0 -84 -49 -131q-45 -43 -120 -43h-43z" />
    <glyph glyph-name="uniFBE9" unicode="&#x649;" horiz-adv-x="337" arabic-form="medial" 
d="M312 62h35v-62h-43q-90 0 -135 61q-47 -61 -136 -61h-43v62h35q110 0 110 114v217l67 35v-252q0 -114 110 -114z" />
    <glyph glyph-name="uniFC59" unicode="&#xfc59;" horiz-adv-x="970" arabic-form="isolated" 
d="M653 0q-8 -86 -90 -139q-79 -51 -203 -51q-154 0 -232 90q-58 67 -58 165q0 86 44 148l65 13q-48 -73 -48 -156q0 -92 63 -147q60 -53 166 -53q109 0 171 46q46 34 54 84h-102l32 62h143q110 0 110 114v217l67 35v-252q0 -114 110 -114h35v-62h-43q-90 0 -135 61
q-47 -61 -136 -61h-13zM718 -105q40 0 40 -41t-40 -41t-40 41t40 41zM832 -105q40 0 40 -41t-40 -41t-40 41t40 41z" />
    <glyph glyph-name="uniFC5A" unicode="&#xfc5a;" horiz-adv-x="925" arabic-form="isolated" 
d="M653 0q-8 -86 -90 -139q-79 -51 -203 -51q-154 0 -232 90q-58 67 -58 165q0 86 44 148l65 13q-48 -73 -48 -156q0 -92 63 -147q60 -53 166 -53q109 0 171 46q46 34 54 84h-102l32 62h143q110 0 110 114v217l67 35v-254q0 -84 -49 -131q-45 -43 -120 -43h-13zM297 -355
q-41 0 -41 41t41 41q39 0 39 -41t-39 -41zM411 -355q-40 0 -40 41t40 41t40 -41t-40 -41zM656 -187q-41 0 -41 42q0 40 41 40q39 0 39 -40q0 -42 -39 -42zM770 -187q-41 0 -41 42q0 40 41 40q39 0 39 -40q0 -42 -39 -42z" />
    <glyph glyph-name="uniFC5E" unicode="&#xfc5e;" arabic-form="isolated" 
d="M151 775q-30 18 -30 56q0 28 17.5 47.5t43.5 19.5q27 0 44.5 -19t17.5 -48q0 -43 -27.5 -70.5t-70.5 -27.5q-51 0 -80 40l-22 -36l-36 21l40 65h20q26 -49 71 -49q6 0 12 1zM187 791q19 18 19 40q0 32 -24 32t-24 -32q0 -28 29 -40zM179 624v47l38 21v-69
q0 -25 -17 -41.5t-43 -16.5t-41 15q-16 -15 -42 -15t-43 16.5t-17 41.5v25l38 21v-45q0 -22 23 -22q22 0 22 19v40l38 21v-61q0 -19 22 -19t22 22z" />
    <glyph glyph-name="uniFC5F" unicode="&#xfc5f;" arabic-form="isolated" 
d="M111 782q-16 -15 -42 -15t-43 16.5t-17 41.5v25l38 21v-45q0 -22 23 -22q22 0 22 19v40l38 21v-61q0 -19 22 -19t22 22v47l38 21v-69q0 -25 -17 -41.5t-43 -16.5t-41 15zM13 647l23 48l189 34l-23 -48zM0 565l23 48l188 35l-22 -48z" />
    <glyph glyph-name="uniFC60" unicode="&#xfc60;" arabic-form="isolated" 
d="M213 818l-22 -48l-189 -35l23 48zM167 624v47l38 21v-69q0 -25 -17 -41.5t-43 -16.5t-41 15q-16 -15 -42 -15t-43 16.5t-17 41.5v25l38 21v-45q0 -22 23 -22q22 0 22 19v40l38 21v-61q0 -19 22 -19t22 22z" />
    <glyph glyph-name="uniFC61" unicode="&#xfc61;" arabic-form="isolated" 
d="M118 790q-19 19 -19 50q0 29 17.5 48t43.5 19q27 0 44.5 -19t17.5 -48q0 -33 -18.5 -56.5t-47.5 -28.5l-154 -28l21 45zM162 801q22 15 22 39q0 32 -24 32t-24 -32q0 -25 26 -39zM167 624v47l38 21v-69q0 -25 -17 -41.5t-43 -16.5t-41 15q-16 -15 -42 -15t-43 16.5
t-17 41.5v25l38 21v-45q0 -22 23 -22q22 0 22 19v40l38 21v-61q0 -19 22 -19t22 22z" />
    <glyph glyph-name="uniFC62" unicode="&#xfc62;" arabic-form="isolated" 
d="M107 705q-16 -15 -42 -15t-43 16.5t-17 41.5v25l38 21v-45q0 -22 23 -22q22 0 22 19v40l38 21v-61q0 -19 22 -19t22 22v47l38 21v-69q0 -25 -17 -41.5t-43 -16.5t-41 15zM23 613l188 35l-22 -48l-189 -35z" />
    <glyph glyph-name="uniFC63" unicode="&#xfc63;" arabic-form="isolated" 
d="M176 756l-34 -17v121l34 17v-121zM264 692v-75q0 -28 -17 -45.5t-44 -17.5q-26 0 -43 18q-17 -18 -43 -18q-27 0 -44 17.5t-17 45.5v59l33 16v-73q0 -32 27 -32t27 32v56l35 17v-73q0 -32 26 -32q27 0 27 32v57z" />
    <glyph glyph-name="uniFC95" unicode="&#xfc95;" horiz-adv-x="970" arabic-form="final" 
d="M653 0q-8 -86 -90 -139q-79 -51 -203 -51q-154 0 -232 90q-58 67 -58 165q0 86 44 148l65 13q-48 -73 -48 -156q0 -92 63 -147q60 -53 166 -53q109 0 171 46q46 34 54 84h-102l32 62h143q110 0 110 114v217l67 35v-252q0 -114 110 -114h35v-62h-43q-90 0 -135 61
q-47 -61 -136 -61h-13zM718 -105q40 0 40 -41t-40 -41t-40 41t40 41zM832 -105q40 0 40 -41t-40 -41t-40 41t40 41z" />
    <glyph glyph-name="uniFC96" unicode="&#xfc96;" horiz-adv-x="970" arabic-form="final" 
d="M653 0q-8 -86 -90 -139q-79 -51 -203 -51q-154 0 -232 90q-58 67 -58 165q0 86 44 148l65 13q-48 -73 -48 -156q0 -92 63 -147q60 -53 166 -53q109 0 171 46q46 34 54 84h-102l32 62h143q110 0 110 114v217l67 35v-252q0 -114 110 -114h35v-62h-43q-90 0 -135 61
q-47 -61 -136 -61h-13zM297 -355q-41 0 -41 41t41 41q39 0 39 -41t-39 -41zM411 -355q-40 0 -40 41t40 41t40 -41t-40 -41zM718 -105q40 0 40 -41t-40 -41t-40 41t40 41zM832 -105q40 0 40 -41t-40 -41t-40 41t40 41z" />
    <glyph glyph-name="uniFE82" unicode="&#x622;" horiz-adv-x="292" arabic-form="final" 
d="M235 749q-30 -48 -66 -48q-23 0 -54 21q-22 15 -34 15q-18 0 -41 -32l-26 19q31 49 66 49q20 0 48 -19q24 -17 40 -17t41 31zM259 0q-85 0 -131 55q-38 47 -38 119v436l67 35v-469q0 -114 110 -114h35v-62h-43z" />
    <glyph glyph-name="uniFE84" unicode="&#x623;" horiz-adv-x="292" arabic-form="final" 
d="M35 659l19 35h25q-10 17 -10 36q0 28 21.5 49t49.5 21q22 0 43 -14v-37q-19 14 -38 14q-17 0 -28 -10t-11 -25q0 -17 14 -34h88l-19 -35h-154zM259 0q-85 0 -131 55q-38 47 -38 119v396l67 35v-429q0 -114 110 -114h35v-62h-43z" />
    <glyph glyph-name="uniFE86" unicode="&#x624;" horiz-adv-x="519" arabic-form="final" 
d="M311 597l-19 -36h-155l19 36h26q-10 18 -10 36q0 28 21 48.5t50 20.5q22 0 43 -13v-38q-20 15 -39 15q-16 0 -27 -10.5t-11 -24.5q0 -17 14 -34h88zM529 62v-62h-106q-1 -66 -42.5 -116.5t-107.5 -66.5q-24 -7 -52 -7q-58 0 -113 28v59q52 -28 103 -28q41 0 72 18
q31 16 52 48.5t21 64.5l-85 3q-111 5 -166 70q-45 55 -45 147q0 108 56 167q50 53 134 53q87 0 133 -52q40 -45 40 -120v-206h106zM356 261q0 118 -106 118q-59 0 -91.5 -41.5t-32.5 -116.5q0 -149 147 -156q44 -3 83 -3v199z" />
    <glyph glyph-name="uniFE88" unicode="&#x625;" horiz-adv-x="292" arabic-form="final" 
d="M259 0q-85 0 -131 55q-38 47 -38 119v436l67 35v-469q0 -114 110 -114h35v-62h-43zM82 -236l19 36h26q-10 18 -10 36q0 28 21 48.5t50 20.5q22 0 43 -13v-38q-20 15 -39 15q-16 0 -27 -10.5t-11 -24.5q0 -17 14 -34h88l-19 -36h-155z" />
    <glyph glyph-name="uniFE8A" unicode="&#x626;" horiz-adv-x="633" arabic-form="final" 
d="M122 338l19 36h26q-10 18 -10 36q0 28 21 48.5t50 20.5q22 0 43 -13v-38q-20 15 -39 15q-16 0 -27 -10.5t-11 -24.5q0 -17 14 -34h88l-19 -36h-155zM653 0q-8 -86 -90 -139q-79 -51 -203 -51q-154 0 -232 90q-58 67 -58 165q0 86 44 148l65 13q-48 -73 -48 -156
q0 -92 63 -147q60 -53 166 -53q109 0 171 46q46 34 54 84h-102l32 62h141v-62h-3z" />
    <glyph glyph-name="uniFE8B" unicode="&#x626;" horiz-adv-x="275" arabic-form="initial" 
d="M53 562l19 35h26q-10 18 -10 37q0 28 21 48.5t50 20.5q22 0 43 -14v-37q-20 14 -39 14q-16 0 -27 -10.5t-11 -24.5q0 -17 14 -34h88l-19 -35h-155zM-10 0v62h35q110 0 110 114v217l67 35v-254q0 -84 -49 -131q-45 -43 -120 -43h-43z" />
    <glyph glyph-name="uniFE8C" unicode="&#x626;" horiz-adv-x="337" arabic-form="medial" 
d="M249 597l-19 -35h-154l19 35h25q-9 18 -9 36q0 28 21 49t49 21q23 0 44 -14v-37q-20 14 -39 14q-16 0 -27.5 -10t-11.5 -24q0 -18 15 -35h87zM312 62h35v-62h-43q-90 0 -135 61q-47 -61 -136 -61h-43v62h35q110 0 110 114v217l67 35v-252q0 -114 110 -114z" />
    <glyph glyph-name="uniFE8E" unicode="&#x627;" horiz-adv-x="292" arabic-form="final" 
d="M259 0q-85 0 -131 55q-38 47 -38 119v436l67 35v-469q0 -114 110 -114h35v-62h-43z" />
    <glyph glyph-name="uniFE90" unicode="&#x628;" horiz-adv-x="894" arabic-form="final" 
d="M889 62h35v-62h-43q-90 0 -135 61q-47 -61 -137 -61h-357q-74 0 -118 46.5t-44 125.5v131l67 35v-158q0 -118 110 -118h335q110 0 110 118v213l67 35v-252q0 -114 110 -114zM391 -105q39 0 39 -40q0 -42 -39 -42q-41 0 -41 42q0 40 41 40z" />
    <glyph glyph-name="uniFE91" unicode="&#x628;" horiz-adv-x="292" arabic-form="initial" 
d="M-10 0v62h35q110 0 110 114v217l67 35v-254q0 -84 -49 -131q-45 -43 -120 -43h-43zM123 -187q-41 0 -41 42q0 40 41 40q39 0 39 -40q0 -42 -39 -42z" />
    <glyph glyph-name="uniFE92" unicode="&#x628;" horiz-adv-x="337" arabic-form="medial" 
d="M312 62h35v-62h-43q-90 0 -135 61q-47 -61 -136 -61h-43v62h35q110 0 110 114v217l67 35v-252q0 -114 110 -114zM158 -105q39 0 39 -40q0 -42 -39 -42q-41 0 -41 42q0 40 41 40z" />
    <glyph glyph-name="uniFE94" unicode="&#x629;" horiz-adv-x="518" arabic-form="final" 
d="M186 565q-41 0 -41 42q0 40 41 40q39 0 39 -40q0 -42 -39 -42zM300 565q-41 0 -41 42q0 40 41 40q39 0 39 -40q0 -42 -39 -42zM494 62h34v-62h-43q-107 0 -149 84q-52 -54 -128 -54q-86 0 -136 65q-42 55 -42 137q0 96 56 154q49 51 121 51q65 0 109 -38v54l67 35v-312
q0 -114 111 -114zM316 323q-44 53 -107 53q-50 0 -81.5 -40.5t-31.5 -104.5q0 -65 31.5 -104t82.5 -39q65 0 108 57q-2 18 -2 29v149z" />
    <glyph glyph-name="uniFE96" unicode="&#x62a;" horiz-adv-x="894" arabic-form="final" 
d="M355 465q-40 0 -40 42q0 40 40 40t40 -40q0 -42 -40 -42zM470 465q-41 0 -41 42q0 40 41 40q39 0 39 -40q0 -42 -39 -42zM889 62h35v-62h-43q-90 0 -135 61q-47 -61 -137 -61h-357q-74 0 -118 46.5t-44 125.5v131l67 35v-158q0 -118 110 -118h335q110 0 110 118v213
l67 35v-252q0 -114 110 -114z" />
    <glyph glyph-name="uniFE97" unicode="&#x62a;" horiz-adv-x="292" arabic-form="initial" 
d="M50 560q-41 0 -41 42q0 40 41 40q39 0 39 -40q0 -42 -39 -42zM164 560q-41 0 -41 42q0 40 41 40q39 0 39 -40q0 -42 -39 -42zM-10 0v62h35q110 0 110 114v217l67 35v-254q0 -84 -49 -131q-45 -43 -120 -43h-43z" />
    <glyph glyph-name="uniFE98" unicode="&#x62a;" horiz-adv-x="337" arabic-form="medial" 
d="M91 557q-40 0 -40 41t40 41t40 -41t-40 -41zM205 557q-40 0 -40 41t40 41t40 -41t-40 -41zM312 62h35v-62h-43q-90 0 -135 61q-47 -61 -136 -61h-43v62h35q110 0 110 114v217l67 35v-252q0 -114 110 -114z" />
    <glyph glyph-name="uniFE9A" unicode="&#x62b;" horiz-adv-x="894" arabic-form="final" 
d="M417 569q-39 0 -39 41q0 39 39 39q38 0 38 -39q0 -41 -38 -41zM360 465q-40 0 -40 42q0 40 40 40t40 -40q0 -42 -40 -42zM434 507q0 40 41 40q39 0 39 -40q0 -42 -39 -42q-41 0 -41 42zM889 62h35v-62h-43q-90 0 -135 61q-47 -61 -137 -61h-357q-74 0 -118 46.5
t-44 125.5v131l67 35v-158q0 -118 110 -118h335q110 0 110 118v213l67 35v-252q0 -114 110 -114z" />
    <glyph glyph-name="uniFE9B" unicode="&#x62b;" horiz-adv-x="292" arabic-form="initial" 
d="M106 664q-37 0 -37 38q0 37 37 37q36 0 36 -37q0 -38 -36 -38zM50 560q-41 0 -41 42q0 40 41 40q39 0 39 -40q0 -42 -39 -42zM164 560q-41 0 -41 42q0 40 41 40q39 0 39 -40q0 -42 -39 -42zM-10 0v62h35q110 0 110 114v217l67 35v-254q0 -84 -49 -131q-45 -43 -120 -43
h-43z" />
    <glyph glyph-name="uniFE9C" unicode="&#x62b;" horiz-adv-x="337" arabic-form="medial" 
d="M151 661q-39 0 -39 40q0 39 39 39q38 0 38 -39q0 -40 -38 -40zM95 557q-41 0 -41 41t41 41q39 0 39 -41t-39 -41zM168 598q0 41 41 41q39 0 39 -41t-39 -41q-41 0 -41 41zM312 62h35v-62h-43q-90 0 -135 61q-47 -61 -136 -61h-43v62h35q110 0 110 114v217l67 35v-252
q0 -114 110 -114z" />
    <glyph glyph-name="uniFE9E" unicode="&#x62c;" horiz-adv-x="684" arabic-form="final" 
d="M679 62h35v-62h-36q-86 0 -137 21t-94 74q-35 -13 -107 -27q-118 -23 -159 -64q-49 -49 -49 -138q0 -86 57 -136q48 -43 123 -43h2q114 0 183 51v-61q-82 -52 -186 -52q-112 0 -180 75q-61 67 -61 168q0 108 66 177q30 31 69 47.5t119 31.5q82 16 120 33.5t66 51.5
q-87 171 -215 171q-87 0 -168 -87v66q82 81 171 81h2q157 0 272 -212v-41q-30 -41 -76 -68q32 -32 72.5 -44.5t110.5 -12.5zM276 -132q0 38 38 38q37 0 37 -38q0 -39 -37 -39q-38 0 -38 39z" />
    <glyph glyph-name="uniFE9F" unicode="&#x62c;" horiz-adv-x="554" arabic-form="initial" 
d="M-10 0v62h112q218 0 340 148q-89 170 -215 170q-86 0 -168 -87v66q82 81 171 81h2q157 0 272 -212v-41q-146 -187 -403 -187h-111zM254 -187q-41 0 -41 42q0 40 41 40q39 0 39 -40q0 -42 -39 -42z" />
    <glyph glyph-name="uniFEA0" unicode="&#x62c;" horiz-adv-x="647" arabic-form="medial" 
d="M622 62h35v-62h-36q-83 0 -132.5 19t-91.5 67q-128 -86 -296 -86h-111v62h112q218 0 340 148q-89 170 -215 170q-86 0 -168 -87v66q82 81 171 81h2q157 0 272 -212v-41q-31 -40 -66 -69q32 -31 72.5 -43.5t111.5 -12.5zM254 -105q39 0 39 -40q0 -42 -39 -42q-41 0 -41 42
q0 40 41 40z" />
    <glyph glyph-name="uniFEA2" unicode="&#x62d;" horiz-adv-x="704" arabic-form="final" 
d="M679 62h35v-62h-36q-86 0 -137 21t-94 74q-35 -13 -107 -27q-118 -23 -159 -64q-49 -49 -49 -138q0 -86 57 -136q48 -43 123 -43h2q114 0 183 51v-61q-82 -52 -186 -52q-112 0 -180 75q-61 67 -61 168q0 108 66 177q30 31 69 47.5t119 31.5q82 16 120 33.5t66 51.5
q-87 171 -215 171q-87 0 -168 -87v66q82 81 171 81h2q157 0 272 -212v-41q-30 -41 -76 -68q32 -32 72.5 -44.5t110.5 -12.5z" />
    <glyph glyph-name="uniFEA3" unicode="&#x62d;" horiz-adv-x="554" arabic-form="initial" 
d="M-10 0v62h112q218 0 340 148q-89 170 -215 170q-86 0 -168 -87v66q82 81 171 81h2q157 0 272 -212v-41q-146 -187 -403 -187h-111z" />
    <glyph glyph-name="uniFEA4" unicode="&#x62d;" horiz-adv-x="647" arabic-form="medial" 
d="M622 62h35v-62h-36q-83 0 -132.5 19t-91.5 67q-128 -86 -296 -86h-111v62h112q218 0 340 148q-89 170 -215 170q-86 0 -168 -87v66q82 81 171 81h2q157 0 272 -212v-41q-31 -40 -66 -69q32 -31 72.5 -43.5t111.5 -12.5z" />
    <glyph glyph-name="uniFEA6" unicode="&#x62e;" horiz-adv-x="704" arabic-form="final" 
d="M326 560q-41 0 -41 42q0 40 41 40q39 0 39 -40q0 -42 -39 -42zM679 62h35v-62h-36q-86 0 -137 21t-94 74q-35 -13 -107 -27q-118 -23 -159 -64q-49 -49 -49 -138q0 -86 57 -136q48 -43 123 -43h2q114 0 183 51v-61q-82 -52 -186 -52q-112 0 -180 75q-61 67 -61 168
q0 108 66 177q30 31 69 47.5t119 31.5q82 16 120 33.5t66 51.5q-87 171 -215 171q-87 0 -168 -87v66q82 81 171 81h2q157 0 272 -212v-41q-30 -41 -76 -68q32 -32 72.5 -44.5t110.5 -12.5z" />
    <glyph glyph-name="uniFEA7" unicode="&#x62e;" horiz-adv-x="554" arabic-form="initial" 
d="M270 560q-41 0 -41 42q0 40 41 40q39 0 39 -40q0 -42 -39 -42zM-10 0v62h112q218 0 340 148q-89 170 -215 170q-86 0 -168 -87v66q82 81 171 81h2q157 0 272 -212v-41q-146 -187 -403 -187h-111z" />
    <glyph glyph-name="uniFEA8" unicode="&#x62e;" horiz-adv-x="647" arabic-form="medial" 
d="M270 560q-41 0 -41 42q0 40 41 40q39 0 39 -40q0 -42 -39 -42zM622 62h35v-62h-36q-83 0 -132.5 19t-91.5 67q-128 -86 -296 -86h-111v62h112q218 0 340 148q-89 170 -215 170q-86 0 -168 -87v66q82 81 171 81h2q157 0 272 -212v-41q-31 -40 -66 -69q32 -31 72.5 -43.5
t111.5 -12.5z" />
    <glyph glyph-name="uniFEAA" unicode="&#x62f;" horiz-adv-x="515" arabic-form="final" 
d="M10 0l32 62h188q46 0 64.5 23t18.5 80q0 147 -129 219l33 55q159 -92 162 -259q1 -118 115 -118h31v-62h-38q-87 0 -133 58q-34 -58 -113 -58h-231z" />
    <glyph glyph-name="uniFEAC" unicode="&#x630;" horiz-adv-x="515" arabic-form="final" 
d="M221 560q-41 0 -41 42q0 40 41 40q39 0 39 -40q0 -42 -39 -42zM10 0l32 62h188q46 0 64.5 23t18.5 80q0 147 -129 219l33 55q159 -92 162 -259q1 -118 115 -118h31v-62h-38q-87 0 -133 58q-34 -58 -113 -58h-231z" />
    <glyph glyph-name="uniFEAE" unicode="&#x631;" horiz-adv-x="357" arabic-form="final" 
d="M332 62h35v-62h-43q-62 0 -103 30q-8 -166 -134 -210q-32 -11 -68 -11q-58 0 -112 28v59q51 -28 104 -28q42 0 74 19q70 42 70 157v349l66 35v-1l1 1v-252q0 -114 110 -114z" />
    <glyph glyph-name="uniFEB0" unicode="&#x632;" horiz-adv-x="357" arabic-form="final" 
d="M182 560q-41 0 -41 42q0 40 41 40q39 0 39 -40q0 -42 -39 -42zM332 62h35v-62h-43q-62 0 -103 30q-8 -166 -134 -210q-32 -11 -68 -11q-58 0 -112 28v59q51 -28 104 -28q42 0 74 19q70 42 70 157v349l66 35v-1l1 1v-252q0 -114 110 -114z" />
    <glyph glyph-name="uniFEB2" unicode="&#x633;" horiz-adv-x="1390" arabic-form="final" 
d="M1342 62h58v-62h-65q-92 0 -139 63q-47 -63 -137 -63h-53q-91 0 -136 62q-45 -62 -136 -62h-53q-59 0 -103 29q-7 -105 -84 -165q-68 -54 -172 -54q-127 0 -197 90q-55 69 -55 165q0 86 44 148l65 13q-48 -73 -48 -156q0 -88 57 -145q53 -53 134 -53q95 0 147 56
q43 46 43 121v271l67 35v-179q0 -114 111 -114h36q111 0 111 114v180l66 36v-216q0 -114 111 -114h37q110 0 110 114v217l67 35v-248q0 -118 114 -118z" />
    <glyph glyph-name="uniFEB3" unicode="&#x633;" horiz-adv-x="968" arabic-form="initial" 
d="M-10 0v62h61q111 0 111 114v144l67 35v-179q0 -114 110 -114h37q110 0 110 114v180l67 36v-216q0 -114 111 -114h36q111 0 111 114v217l67 35v-254q0 -83 -49 -130q-44 -43 -119 -44h-55q-93 0 -135 66q-43 -66 -134 -66h-55q-93 0 -136 66q-42 -66 -135 -66h-70z" />
    <glyph glyph-name="uniFEB4" unicode="&#x633;" horiz-adv-x="1040" arabic-form="medial" 
d="M-10 0v62h61q111 0 111 114v144l67 35v-179q0 -114 110 -114h37q110 0 110 114v180l67 36v-216q0 -114 111 -114h36q111 0 111 114v217l67 35v-248q0 -118 114 -118h58v-62h-65q-95 0 -139 67q-44 -67 -136 -67h-55q-93 0 -135 66q-43 -66 -134 -66h-55q-93 0 -136 66
q-42 -66 -135 -66h-70z" />
    <glyph glyph-name="uniFEB6" unicode="&#x634;" horiz-adv-x="1390" arabic-form="final" 
d="M868 631q-37 0 -37 38q0 36 37 36q36 0 36 -36q0 -38 -36 -38zM811 527q-40 0 -40 41t40 41t40 -41t-40 -41zM885 568q0 41 41 41q39 0 39 -41t-39 -41q-41 0 -41 41zM1342 62h58v-62h-65q-92 0 -139 63q-47 -63 -137 -63h-53q-91 0 -136 62q-45 -62 -136 -62h-53
q-59 0 -103 29q-7 -105 -84 -165q-68 -54 -172 -54q-127 0 -197 90q-55 69 -55 165q0 86 44 148l65 13q-48 -73 -48 -156q0 -88 57 -145q53 -53 134 -53q95 0 147 56q43 46 43 121v271l67 35v-179q0 -114 111 -114h36q111 0 111 114v180l66 36v-216q0 -114 111 -114h37
q110 0 110 114v217l67 35v-248q0 -118 114 -118z" />
    <glyph glyph-name="uniFEB7" unicode="&#x634;" horiz-adv-x="968" arabic-form="initial" 
d="M519 631q-36 0 -36 38q0 36 36 36t36 -36q0 -38 -36 -38zM463 527q-41 0 -41 41t41 41q39 0 39 -41t-39 -41zM577 527q-40 0 -40 41t40 41t40 -41t-40 -41zM-10 0v62h61q111 0 111 114v144l67 35v-179q0 -114 110 -114h37q110 0 110 114v180l67 36v-216q0 -114 111 -114
h36q111 0 111 114v217l67 35v-254q0 -83 -49 -130q-44 -43 -119 -44h-55q-93 0 -135 66q-43 -66 -134 -66h-55q-93 0 -136 66q-42 -66 -135 -66h-70z" />
    <glyph glyph-name="uniFEB8" unicode="&#x634;" horiz-adv-x="1040" arabic-form="medial" 
d="M519 631q-36 0 -36 38q0 36 36 36t36 -36q0 -38 -36 -38zM463 527q-41 0 -41 41t41 41q39 0 39 -41t-39 -41zM577 527q-40 0 -40 41t40 41t40 -41t-40 -41zM-10 0v62h61q111 0 111 114v144l67 35v-179q0 -114 110 -114h37q110 0 110 114v180l67 36v-216q0 -114 111 -114
h36q111 0 111 114v217l67 35v-248q0 -118 114 -118h58v-62h-65q-95 0 -139 67q-44 -67 -136 -67h-55q-93 0 -135 66q-43 -66 -134 -66h-55q-93 0 -136 66q-42 -66 -135 -66h-70z" />
    <glyph glyph-name="uniFEBA" unicode="&#x635;" horiz-adv-x="1392" arabic-form="final" 
d="M1367 62h35v-62h-43q-90 0 -135 61q-45 -61 -136 -61h-407q-59 0 -103 29q-7 -105 -84 -165q-68 -54 -172 -54q-127 0 -197 90q-55 69 -55 165q0 86 44 148l65 13q-48 -73 -48 -156q0 -88 57 -145q53 -53 134 -53q95 0 147 56q43 46 43 121v271l67 35v-179q0 -94 73 -110
q36 153 129 258q103 116 242 116q112 0 178 -77q56 -66 56 -163v-26q0 -112 110 -112zM1083 62q107 0 107 118v20q0 84 -53 135q-45 44 -113 44q-118 0 -208 -110q-69 -83 -103 -207h370z" />
    <glyph glyph-name="uniFEBB" unicode="&#x635;" horiz-adv-x="952" arabic-form="initial" 
d="M275 66q37 154 129 258q103 116 242 116q112 0 178 -77q56 -66 56 -163v-28q0 -85 -52 -132q-44 -40 -117 -40h-407q-90 0 -135 61q-47 -61 -136 -61h-43v62h35q110 0 110 114v144l67 35v-179q0 -94 73 -110zM813 180v20q0 84 -53 135q-45 44 -113 44q-117 0 -208 -110
q-69 -84 -104 -207h371q107 0 107 118z" />
    <glyph glyph-name="uniFEBC" unicode="&#x635;" horiz-adv-x="1015" arabic-form="medial" 
d="M990 62h35v-62h-43q-90 0 -135 61q-45 -61 -136 -61h-407q-90 0 -135 61q-47 -61 -136 -61h-43v62h35q110 0 110 114v144l67 35v-179q0 -94 73 -110q37 154 129 258q103 116 242 116q112 0 178 -77q56 -66 56 -163v-26q0 -112 110 -112zM706 62q107 0 107 118v20
q0 84 -53 135q-45 44 -113 44q-117 0 -208 -110q-69 -84 -104 -207h371z" />
    <glyph glyph-name="uniFEBE" unicode="&#x636;" horiz-adv-x="1392" arabic-form="final" 
d="M1018 560q-41 0 -41 42q0 40 41 40q39 0 39 -40q0 -42 -39 -42zM1367 62h35v-62h-43q-90 0 -135 61q-45 -61 -136 -61h-407q-59 0 -103 29q-7 -105 -84 -165q-68 -54 -172 -54q-127 0 -197 90q-55 69 -55 165q0 86 44 148l65 13q-48 -73 -48 -156q0 -88 57 -145
q53 -53 134 -53q95 0 147 56q43 46 43 121v271l67 35v-179q0 -94 73 -110q36 153 129 258q103 116 242 116q112 0 178 -77q56 -66 56 -163v-26q0 -112 110 -112zM1083 62q107 0 107 118v20q0 84 -53 135q-45 44 -113 44q-118 0 -208 -110q-69 -83 -103 -207h370z" />
    <glyph glyph-name="uniFEBF" unicode="&#x636;" horiz-adv-x="952" arabic-form="initial" 
d="M661 560q-41 0 -41 42q0 40 41 40q39 0 39 -40q0 -42 -39 -42zM275 66q37 154 129 258q103 116 242 116q112 0 178 -77q56 -66 56 -163v-28q0 -85 -52 -132q-44 -40 -117 -40h-407q-90 0 -135 61q-47 -61 -136 -61h-43v62h35q110 0 110 114v144l67 35v-179q0 -94 73 -110
zM813 180v20q0 84 -53 135q-45 44 -113 44q-117 0 -208 -110q-69 -84 -104 -207h371q107 0 107 118z" />
    <glyph glyph-name="uniFEC0" unicode="&#x636;" horiz-adv-x="1015" arabic-form="medial" 
d="M661 560q-41 0 -41 42q0 40 41 40q39 0 39 -40q0 -42 -39 -42zM990 62h35v-62h-43q-90 0 -135 61q-45 -61 -136 -61h-407q-90 0 -135 61q-47 -61 -136 -61h-43v62h35q110 0 110 114v144l67 35v-179q0 -94 73 -110q37 154 129 258q103 116 242 116q112 0 178 -77
q56 -66 56 -163v-26q0 -112 110 -112zM706 62q107 0 107 118v20q0 84 -53 135q-45 44 -113 44q-117 0 -208 -110q-69 -84 -104 -207h371z" />
    <glyph glyph-name="uniFEC2" unicode="&#x637;" horiz-adv-x="926" arabic-form="final" 
d="M936 62v-62h-43q-84 0 -130 54q-36 -54 -116 -54h-627l33 62h132v548l62 35v-420q117 215 310 215q112 0 178 -77q56 -66 56 -163v-26q0 -112 111 -112h34zM724 200q0 84 -53 135q-45 44 -113 44q-117 0 -208 -113q-69 -85 -102 -204h392q48 0 66 22.5t18 82.5v33z" />
    <glyph glyph-name="uniFEC3" unicode="&#x637;" horiz-adv-x="837" arabic-form="initial" 
d="M221 225q117 215 310 215q112 0 178 -77q56 -66 56 -163v-35q0 -165 -144 -165h-631v62h169v548l62 35v-420zM698 200q0 84 -53 135q-45 44 -113 44q-117 0 -208 -113q-69 -85 -102 -204h392q48 0 66 22.5t18 82.5v33z" />
    <glyph glyph-name="uniFEC4" unicode="&#x637;" horiz-adv-x="900" arabic-form="medial" 
d="M910 62v-62h-43q-84 0 -130 54q-36 -54 -116 -54h-631v62h169v548l62 35v-420q117 215 310 215q112 0 178 -77q56 -66 56 -163v-26q0 -112 111 -112h34zM698 200q0 84 -53 135q-45 44 -113 44q-117 0 -208 -113q-69 -85 -102 -204h392q48 0 66 22.5t18 82.5v33z" />
    <glyph glyph-name="uniFEC6" unicode="&#x638;" horiz-adv-x="926" arabic-form="final" 
d="M936 62v-62h-43q-84 0 -130 54q-36 -54 -116 -54h-627l33 62h132v548l62 35v-420q117 215 310 215q112 0 178 -77q56 -66 56 -163v-26q0 -112 111 -112h34zM724 200q0 84 -53 135q-45 44 -113 44q-117 0 -208 -113q-69 -85 -102 -204h392q48 0 66 22.5t18 82.5v33z
M552 560q-41 0 -41 42q0 40 41 40q39 0 39 -40q0 -42 -39 -42z" />
    <glyph glyph-name="uniFEC7" unicode="&#x638;" horiz-adv-x="837" arabic-form="initial" 
d="M221 225q117 215 310 215q112 0 178 -77q56 -66 56 -163v-35q0 -165 -144 -165h-631v62h169v548l62 35v-420zM698 200q0 84 -53 135q-45 44 -113 44q-117 0 -208 -113q-69 -85 -102 -204h392q48 0 66 22.5t18 82.5v33zM525 560q-41 0 -41 42q0 40 41 40q39 0 39 -40
q0 -42 -39 -42z" />
    <glyph glyph-name="uniFEC8" unicode="&#x638;" horiz-adv-x="900" arabic-form="medial" 
d="M910 62v-62h-43q-84 0 -130 54q-36 -54 -116 -54h-631v62h169v548l62 35v-420q117 215 310 215q112 0 178 -77q56 -66 56 -163v-26q0 -112 111 -112h34zM698 200q0 84 -53 135q-45 44 -113 44q-117 0 -208 -113q-69 -85 -102 -204h392q48 0 66 22.5t18 82.5v33zM525 560
q-41 0 -41 42q0 40 41 40q39 0 39 -40q0 -42 -39 -42z" />
    <glyph glyph-name="uniFECA" unicode="&#x639;" horiz-adv-x="663" arabic-form="final" 
d="M313 25q-10 -6 -33 -19l-2 -1q-82 -46 -109.5 -79t-27.5 -88q0 -66 45.5 -108.5t117.5 -42.5h2q114 0 183 51v-61q-82 -52 -185 -52q-108 0 -172 71q-53 60 -53 144q0 71 35 114t141 102q-87 59 -184 197v41q104 146 245 146q66 0 131 -39t115 -109v-39
q-69 -95 -185 -185q26 -6 54 -6h242v-62h-246q-59 0 -114 25zM129 272q105 -138 185 -180q103 72 190 182q-80 105 -188 105h-3q-103 0 -184 -107z" />
    <glyph glyph-name="uniFECB" unicode="&#x639;" horiz-adv-x="552" arabic-form="initial" 
d="M502 62v-62h-512v62h168q-63 64 -63 170q0 101 69 160q55 47 129 48q103 0 161 -81v-66q-60 86 -154 86h-3q-60 0 -97.5 -41t-37.5 -108q0 -77 46 -123q44 -45 118 -45h176z" />
    <glyph glyph-name="uniFECC" unicode="&#x639;" horiz-adv-x="694" arabic-form="medial" 
d="M704 0h-247q-54 0 -110 23q-57 -23 -111 -23h-246v62h242q20 0 41 3q-79 57 -172 188v41q104 146 245 146q140 0 246 -148v-39q-93 -131 -171 -188q20 -3 40 -3h242zM159 273q105 -140 187 -182q81 42 188 183q-80 105 -188 105h-3q-102 0 -184 -106z" />
    <glyph glyph-name="uniFECE" unicode="&#x63a;" horiz-adv-x="663" arabic-form="final" 
d="M323 560q-41 0 -41 42q0 40 41 40q39 0 39 -40q0 -42 -39 -42zM313 25q-10 -6 -33 -19l-2 -1q-82 -46 -109.5 -79t-27.5 -88q0 -66 45.5 -108.5t117.5 -42.5h2q114 0 183 51v-61q-82 -52 -185 -52q-108 0 -172 71q-53 60 -53 144q0 71 35 114t141 102q-87 59 -184 197v41
q104 146 245 146q66 0 131 -39t115 -109v-39q-69 -95 -185 -185q26 -6 54 -6h242v-62h-246q-59 0 -114 25zM129 272q105 -138 185 -180q103 72 190 182q-80 105 -188 105h-3q-103 0 -184 -107z" />
    <glyph glyph-name="uniFECF" unicode="&#x63a;" horiz-adv-x="552" arabic-form="initial" 
d="M290 560q-41 0 -41 42q0 40 41 40q39 0 39 -40q0 -42 -39 -42zM502 62v-62h-512v62h168q-63 64 -63 170q0 101 69 160q55 47 129 48q103 0 161 -81v-66q-60 86 -154 86h-3q-60 0 -97.5 -41t-37.5 -108q0 -77 46 -123q44 -45 118 -45h176z" />
    <glyph glyph-name="uniFED0" unicode="&#x63a;" horiz-adv-x="694" arabic-form="medial" 
d="M346 560q-41 0 -41 42q0 40 41 40q39 0 39 -40q0 -42 -39 -42zM704 0h-247q-54 0 -110 23q-57 -23 -111 -23h-246v62h242q20 0 41 3q-79 57 -172 188v41q104 146 245 146q140 0 246 -148v-39q-93 -131 -171 -188q20 -3 40 -3h242zM159 273q105 -140 187 -182
q81 42 188 183q-80 105 -188 105h-3q-102 0 -184 -106z" />
    <glyph glyph-name="uniFED2" unicode="&#x641;" horiz-adv-x="955" arabic-form="final" 
d="M691 557q-41 0 -41 42q0 40 41 40q39 0 39 -40q0 -42 -39 -42zM790 62h175v-62h-218q-34 0 -62 7q-28 -7 -62 -7h-371q-74 0 -118 46.5t-44 125.5v131l67 35v-158q0 -118 110 -118h313q-78 72 -78 173q0 97 54 154q49 51 129 51q91 0 141 -66q42 -55 42 -139
q0 -101 -78 -173zM689 71q51 18 83 64t32 101q0 66 -32 104.5t-87 38.5t-87.5 -38.5t-32.5 -103.5q0 -55 32.5 -101.5t83.5 -64.5l4 -1l2 1h2z" />
    <glyph glyph-name="uniFED3" unicode="&#x641;" horiz-adv-x="538" arabic-form="initial" 
d="M294 558q-41 0 -41 42q0 40 41 40q39 0 39 -40q0 -42 -39 -42zM-10 0v62h170q-55 55 -55 158q0 108 56 167q49 53 130 53q83 0 128 -52q39 -45 39 -120v-97q-1 -81 -49 -127q-44 -44 -120 -44h-299zM392 262q0 117 -101 117q-56 0 -87.5 -41.5t-31.5 -116.5
q0 -73 30.5 -116t81.5 -43q108 0 108 112v88z" />
    <glyph glyph-name="uniFED4" unicode="&#x641;" horiz-adv-x="556" arabic-form="medial" 
d="M281 557q-41 0 -41 42q0 40 41 40q39 0 39 -40q0 -42 -39 -42zM383 62h183v-62h-226q-34 0 -62 7q-28 -7 -62 -7h-226v62h184q-79 73 -79 173q0 97 54 154q49 51 129 51q91 0 141 -66q42 -55 42 -139q0 -101 -78 -173zM282 71q51 18 83.5 64.5t32.5 100.5
q0 66 -32.5 104.5t-87.5 38.5t-87 -38.5t-32 -103.5q0 -55 32 -101.5t83 -64.5l4 -1l2 1h2z" />
    <glyph glyph-name="uniFED6" unicode="&#x642;" horiz-adv-x="750" arabic-form="final" 
d="M428 557q-41 0 -41 42q0 40 41 40q39 0 39 -40q0 -42 -39 -42zM542 557q-41 0 -41 42q0 40 41 40q39 0 39 -40q0 -42 -39 -42zM652 0q-24 -190 -292 -190q-154 0 -232 90q-58 67 -58 165q0 86 44 148l65 13q-48 -73 -48 -156q0 -91 63 -145q61 -53 166 -53q202 0 223 129
l-27 2q-141 6 -201 63q-54 52 -54 154q0 108 56 167q49 53 130 53q83 0 128 -52q39 -45 39 -120v-206h106v-62h-108zM587 62v200q0 117 -100 117q-57 0 -88.5 -42t-31.5 -116q0 -83 42.5 -118.5t147.5 -39.5z" />
    <glyph glyph-name="uniFED7" unicode="&#x642;" horiz-adv-x="538" arabic-form="initial" 
d="M235 557q-41 0 -41 42q0 40 41 40q39 0 39 -40q0 -42 -39 -42zM349 557q-41 0 -41 42q0 40 41 40q39 0 39 -40q0 -42 -39 -42zM-10 0v62h170q-55 55 -55 158q0 108 56 167q49 53 130 53q83 0 128 -52q39 -45 39 -120v-97q-1 -81 -49 -127q-44 -44 -120 -44h-299zM392 262
q0 117 -101 117q-56 0 -87.5 -41.5t-31.5 -116.5q0 -73 30.5 -116t81.5 -43q108 0 108 112v88z" />
    <glyph glyph-name="uniFED8" unicode="&#x642;" horiz-adv-x="556" arabic-form="medial" 
d="M222 557q-41 0 -41 42q0 40 41 40q39 0 39 -40q0 -42 -39 -42zM336 557q-41 0 -41 42q0 40 41 40q39 0 39 -40q0 -42 -39 -42zM383 62h183v-62h-226q-34 0 -62 7q-28 -7 -62 -7h-226v62h184q-79 73 -79 173q0 97 54 154q49 51 129 51q91 0 141 -66q42 -55 42 -139
q0 -101 -78 -173zM282 71q51 18 83.5 64.5t32.5 100.5q0 66 -32.5 104.5t-87.5 38.5t-87 -38.5t-32 -103.5q0 -55 32 -101.5t83 -64.5l4 -1l2 1h2z" />
    <glyph glyph-name="uniFEDA" unicode="&#x643;" horiz-adv-x="913" arabic-form="final" 
d="M889 62h34v-62h-43q-90 0 -135 61q-45 -61 -136 -61h-357q-74 0 -118 46.5t-44 125.5v131l67 35v-158q0 -118 110 -118h335q109 0 109 118v430l67 35v-469q0 -114 111 -114zM430 477q41 0 65 -22t24 -59q0 -33 -19.5 -52.5t-51.5 -19.5h-124l19 35h102q38 0 38 38
q0 46 -58 46q-30 0 -51 -12v34l82 92h42l-69 -80h1z" />
    <glyph glyph-name="uniFEDB" unicode="&#x643;" horiz-adv-x="471" arabic-form="initial" 
d="M148 413q10 1 21 1q90 0 154 -44q88 -63 88 -180v-19q0 -84 -52 -131q-45 -40 -117 -40h-252v62h245q109 0 109 117v10q0 81 -58 121q-48 36 -122 36q-54 0 -107 -19v66l227 252h69z" />
    <glyph glyph-name="uniFEDC" unicode="&#x643;" horiz-adv-x="536" arabic-form="medial" 
d="M521 62h25v-62h-33q-90 0 -135 61q-45 -61 -136 -61h-252v62h245q109 0 109 117v10q0 82 -60 123q-48 34 -120 34q-54 0 -107 -19v66l227 252h69l-205 -232q10 1 21 1q96 0 160 -49q82 -63 82 -175v-14q0 -114 110 -114z" />
    <glyph glyph-name="uniFEDE" unicode="&#x644;" horiz-adv-x="724" arabic-form="final" 
d="M699 62h35v-62h-43q-64 0 -107 32q-8 -106 -85 -167q-69 -55 -174 -55q-130 0 -200 89q-55 69 -55 165q0 87 44 147l66 15q-49 -72 -49 -158q0 -88 57 -144q54 -53 137 -53q96 0 149 58q45 48 45 125v556l66 35v-470v-2q0 -111 114 -111z" />
    <glyph glyph-name="uniFEDF" unicode="&#x644;" horiz-adv-x="289" arabic-form="initial" 
d="M-10 0v62h28q114 0 114 118v430l67 35v-466q0 -85 -50 -134q-47 -45 -124 -45h-35z" />
    <glyph glyph-name="uniFEE0" unicode="&#x644;" horiz-adv-x="334" arabic-form="medial" 
d="M309 62h35v-62h-43q-92 0 -137 63q-47 -63 -139 -63h-35v62h28q114 0 114 118v430l67 35v-469q0 -114 110 -114z" />
    <glyph glyph-name="uniFEE2" unicode="&#x645;" horiz-adv-x="627" arabic-form="final" 
d="M603 62h34v-62h-43q-89 0 -134 60q-46 -59 -136 -60h-127q-110 0 -110 -114v-166l-67 -35v203q0 83 49 130q44 43 117 44q-47 60 -47 158q0 108 56 167q49 53 130 53q83 0 128 -52q39 -45 39 -120v-92q0 -114 111 -114zM425 172v90q0 117 -100 117q-57 0 -88.5 -42
t-31.5 -116q0 -75 30 -117t83 -42q107 0 107 110z" />
    <glyph glyph-name="uniFEE3" unicode="&#x645;" horiz-adv-x="563" arabic-form="initial" 
d="M135 268q0 85 51 132q44 40 116 40q93 0 143 -68q43 -58 43 -152q0 -107 -55 -167q-48 -53 -125 -53q-94 0 -140 60q-45 -60 -135 -60h-43v62h35q110 0 110 114v92zM202 172q0 -110 108 -110q52 0 82 42t30 117q0 74 -31.5 116t-88.5 42q-100 0 -100 -117v-90z" />
    <glyph glyph-name="uniFEE4" unicode="&#x645;" horiz-adv-x="643" arabic-form="medial" 
d="M619 62h34v-62h-43q-91 0 -136 63q-50 -83 -152 -83q-103 0 -152 82q-46 -62 -137 -62h-43v62h35q110 0 110 114v34q0 115 56 176q49 54 131 54q94 0 143 -70q43 -60 43 -160v-34q0 -114 111 -114zM322 42q55 0 87 45.5t32 123.5q0 168 -119 168q-120 0 -120 -168
q0 -169 120 -169z" />
    <glyph glyph-name="uniFEE6" unicode="&#x646;" horiz-adv-x="714" arabic-form="final" 
d="M319 458q-41 0 -41 42q0 40 41 40q39 0 39 -40q0 -42 -39 -42zM689 62h35v-62h-43q-62 0 -103 29q-7 -105 -84 -165q-68 -54 -172 -54q-127 0 -197 90q-55 69 -55 165q0 86 44 148l65 13q-48 -73 -48 -156q0 -88 57 -145q53 -53 134 -53q95 0 147 56q43 46 43 121v344
l67 35v-252q0 -114 110 -114z" />
    <glyph glyph-name="uniFEE7" unicode="&#x646;" horiz-adv-x="292" arabic-form="initial" 
d="M164 560q-41 0 -41 42q0 40 41 40q39 0 39 -40q0 -42 -39 -42zM-10 0v62h35q110 0 110 114v217l67 35v-254q0 -84 -49 -131q-45 -43 -120 -43h-43z" />
    <glyph glyph-name="uniFEE8" unicode="&#x646;" horiz-adv-x="337" arabic-form="medial" 
d="M157 560q-41 0 -41 42q0 40 41 40q39 0 39 -40q0 -42 -39 -42zM312 62h35v-62h-43q-90 0 -135 61q-47 -61 -136 -61h-43v62h35q110 0 110 114v217l67 35v-252q0 -114 110 -114z" />
    <glyph glyph-name="uniFEEA" unicode="&#x647;" horiz-adv-x="518" arabic-form="final" 
d="M494 62h34v-62h-43q-107 0 -149 84q-52 -54 -128 -54q-86 0 -136 65q-42 55 -42 137q0 96 56 154q49 51 121 51q65 0 109 -38v54l67 35v-312q0 -114 111 -114zM316 323q-44 53 -107 53q-50 0 -81.5 -40.5t-31.5 -104.5q0 -65 31.5 -104t82.5 -39q65 0 108 57q-2 18 -2 29
v149z" />
    <glyph glyph-name="uniFEEB" unicode="&#x647;" horiz-adv-x="612" arabic-form="initial" 
d="M91 293q21 83 79.5 131.5t137.5 48.5q101 0 168 -71q63 -68 63 -173v-57q0 -85 -52 -132q-44 -40 -117 -40h-99q-35 0 -65 10q-30 -10 -63 -10h-153v62h128q-54 54 -54 133q0 58 27 98zM473 180v49q0 90 -58 142q-47 41 -110 41q-84 0 -128 -65q15 3 30 3q64 0 103 -42.5
t39 -112.5q0 -79 -54 -133h70q108 0 108 118zM207 71q91 30 91 126q0 47 -24.5 75.5t-66.5 28.5t-67 -28t-25 -76q0 -96 92 -126z" />
    <glyph glyph-name="uniFEEC" unicode="&#x647;" horiz-adv-x="675" arabic-form="medial" 
d="M650 62h35v-62h-43q-91 0 -136 61q-45 -61 -136 -61h-99q-35 0 -65 10q-30 -10 -63 -10h-153v62h128q-54 54 -54 133q0 58 27 98q21 83 79.5 131.5t137.5 48.5q101 0 168 -71q63 -68 63 -173v-53q0 -114 111 -114zM365 62q108 0 108 118v49q0 90 -58 142q-47 41 -110 41
q-84 0 -128 -65q15 3 30 3q64 0 103 -42.5t39 -112.5q0 -79 -54 -133h70zM207 71q91 30 91 126q0 47 -24.5 75.5t-66.5 28.5t-67 -28t-25 -76q0 -96 92 -126z" />
    <glyph glyph-name="uniFEEE" unicode="&#x648;" horiz-adv-x="519" arabic-form="final" 
d="M529 62v-62h-106q-1 -66 -42.5 -116.5t-107.5 -66.5q-24 -7 -52 -7q-58 0 -113 28v59q52 -28 103 -28q41 0 72 18q31 16 52 48.5t21 64.5l-85 3q-111 5 -166 70q-45 55 -45 147q0 108 56 167q50 53 134 53q87 0 133 -52q40 -45 40 -120v-206h106zM356 261q0 118 -106 118
q-59 0 -91.5 -41.5t-32.5 -116.5q0 -149 147 -156q44 -3 83 -3v199z" />
    <glyph glyph-name="uniFEF0" unicode="&#x649;" horiz-adv-x="633" arabic-form="final" 
d="M653 0q-8 -86 -90 -139q-79 -51 -203 -51q-154 0 -232 90q-58 67 -58 165q0 86 44 148l65 13q-48 -73 -48 -156q0 -92 63 -147q60 -53 166 -53q109 0 171 46q46 34 54 84h-102l32 62h141v-62h-3z" />
    <glyph glyph-name="uniFEF2" unicode="&#x64a;" horiz-adv-x="633" arabic-form="final" 
d="M653 0q-8 -86 -90 -139q-79 -51 -203 -51q-154 0 -232 90q-58 67 -58 165q0 86 44 148l65 13q-48 -73 -48 -156q0 -92 63 -147q60 -53 166 -53q109 0 171 46q46 34 54 84h-102l32 62h141v-62h-3zM297 -355q-41 0 -41 41t41 41q39 0 39 -41t-39 -41zM411 -355
q-40 0 -40 41t40 41t40 -41t-40 -41z" />
    <glyph glyph-name="uniFEF3" unicode="&#x64a;" horiz-adv-x="292" arabic-form="initial" 
d="M-10 0v62h35q110 0 110 114v217l67 35v-254q0 -84 -49 -131q-45 -43 -120 -43h-43zM23 -187q-41 0 -41 42q0 40 41 40q39 0 39 -40q0 -42 -39 -42zM137 -187q-41 0 -41 42q0 40 41 40q39 0 39 -40q0 -42 -39 -42z" />
    <glyph glyph-name="uniFEF4" unicode="&#x64a;" horiz-adv-x="337" arabic-form="medial" 
d="M312 62h35v-62h-43q-90 0 -135 61q-47 -61 -136 -61h-43v62h35q110 0 110 114v217l67 35v-252q0 -114 110 -114zM85 -105q40 0 40 -41t-40 -41t-40 41t40 41zM199 -105q40 0 40 -41t-40 -41t-40 41t40 41z" />
    <glyph glyph-name=".notdef" horiz-adv-x="240" 
d="M24 0v633h192v-633h-192zM192 24v585h-144v-585h144z" />
    <glyph glyph-name="glyph1" 
 />
    <glyph glyph-name="glyph2" horiz-adv-x="240" 
 />
    <glyph glyph-name="space" unicode=" " horiz-adv-x="240" 
 />
    <glyph glyph-name="space" unicode="&#xa0;" horiz-adv-x="240" 
 />
    <glyph glyph-name="exclam" unicode="!" horiz-adv-x="216" 
d="M73 149v484h67v-484h-67zM150 36v-2q0 -43 -41 -43q-43 0 -43 44q2 41 43 41t41 -40z" />
    <glyph glyph-name="quotedbl" unicode="&#x22;" horiz-adv-x="276" 
d="M70 485v133l50 27v-133zM155 485v133l51 27v-133z" />
    <glyph glyph-name="numbersign" unicode="#" horiz-adv-x="497" 
d="M343 147l-30 -147h-53l30 147h-145l-31 -147h-53l31 147h-77v55h88l41 197h-95v55h106l33 155h53l-33 -155h146l32 155h53l-32 -155h75v-55h-87l-40 -197h94v-55h-106zM197 399l-41 -197h146l40 197h-145z" />
    <glyph glyph-name="dollar" unicode="$" horiz-adv-x="532" 
d="M287 700v-56q81 -4 153 -51l-33 -45q-57 30 -120 33v-213q96 -38 136.5 -84.5t40.5 -117.5q0 -74 -48.5 -122t-128.5 -55v-63h-35v63q-95 3 -184 62l32 45q70 -40 148 -41h4v253q-96 34 -138 75.5t-42 101.5q0 68 49.5 111.5t130.5 48.5v55h35zM287 294v-238
q100 15 100 112q0 81 -100 126zM252 383v197q-101 -10 -101 -92q0 -63 101 -105z" />
    <glyph glyph-name="percent" unicode="%" horiz-adv-x="700" 
d="M178 0l291 565h58l-291 -565h-58zM278 412q0 -70 -30.5 -112t-81.5 -42q-54 0 -85 41t-31 112q0 68 31 107t85 39q49 0 80.5 -40.5t31.5 -104.5zM230 410q0 45 -19 75t-47 30q-29 0 -48 -29.5t-19 -75.5q0 -49 18.5 -79.5t48.5 -30.5q29 0 47.5 31t18.5 79zM650 156
q0 -70 -31 -112t-82 -42q-54 0 -84.5 40.5t-30.5 112.5q0 67 31 106.5t84 39.5q50 0 81.5 -40.5t31.5 -104.5zM601 154q0 45 -18.5 75t-47.5 30t-47.5 -29.5t-18.5 -75.5q0 -49 18 -79.5t48 -30.5q29 0 47.5 30.5t18.5 79.5z" />
    <glyph glyph-name="ampersand" unicode="&#x26;" horiz-adv-x="561" 
d="M417 329h72v-39q0 -124 -38 -182l95 -108h-83l-48 54q-57 -66 -159 -66q-90 0 -147 57q-49 50 -49 122q0 52 27.5 100t73.5 77l-13 15q-72 80 -72 144q0 63 44 102.5t115 39.5q67 0 134 -46l-29 -46q-53 28 -106 28q-39 0 -62.5 -21t-23.5 -54q0 -52 71 -133l184 -210
q14 29 14 112v54zM199 303q-26 -18 -44 -53t-18 -69q0 -58 34 -93t91 -35q67 0 107 52z" />
    <glyph glyph-name="quotesingle" unicode="'" horiz-adv-x="190" 
d="M70 485v133l50 27v-133z" />
    <glyph glyph-name="parenleft" unicode="(" horiz-adv-x="368" 
d="M232 645h60q-131 -186 -131 -391q0 -216 131 -394h-60q-60 60 -100.5 174t-40.5 220q0 105 40 216.5t101 174.5z" />
    <glyph glyph-name="parenright" unicode=")" horiz-adv-x="368" 
d="M74 645h60q60 -63 100.5 -174.5t40.5 -216.5q0 -135 -59 -264q-39 -87 -82 -130h-60q131 178 131 394q0 205 -131 391z" />
    <glyph glyph-name="asterisk" unicode="*" horiz-adv-x="332" 
d="M164 646l73 -21l-51 -105l112 28l6 -72l-117 14l62 -100l-68 -26l-22 113l-76 -90l-47 59l104 56l-111 44l42 62l84 -81z" />
    <glyph glyph-name="plus" unicode="+" horiz-adv-x="518" 
d="M228 200h-186v55h186v199h62v-199h186v-55h-186v-200h-62v200z" />
    <glyph glyph-name="comma" unicode="," horiz-adv-x="196" 
d="M65 -74q38 30 38 63q0 4 -2 12q-10 -7 -18 -7q-15 0 -26.5 13t-11.5 30q0 19 12.5 31.5t31.5 12.5q53 0 53 -72t-66 -107z" />
    <glyph glyph-name="hyphen" unicode="-" horiz-adv-x="276" 
d="M251 212h-226v55h226v-55z" />
    <glyph glyph-name="period" unicode="." horiz-adv-x="264" 
d="M174 40v-2q0 -43 -41 -43q-43 0 -43 44q2 41 43 41t41 -40z" />
    <glyph glyph-name="slash" unicode="/" horiz-adv-x="327" 
d="M354 633l-316 -663h-63l317 663h62z" />
    <glyph glyph-name="zero" unicode="0" horiz-adv-x="552" 
d="M502 315q0 -157 -69 -247q-60 -80 -158 -80q-113 0 -175 103q-52 88 -52 224q0 152 69 245q62 85 158 85q109 0 173 -108q54 -91 54 -222zM274 581q-69 0 -108 -69t-39 -191q0 -130 42 -202q39 -66 105 -66q69 0 109 71.5t40 196.5q0 128 -44 197q-39 63 -105 63z" />
    <glyph glyph-name="one" unicode="1" horiz-adv-x="375" 
d="M268 633v-633h-74v554l-127 -72l-37 53l164 98h74z" />
    <glyph glyph-name="two" unicode="2" horiz-adv-x="480" 
d="M50 0v66l177 194q65 72 91 118.5t26 93.5q0 49 -33.5 79t-88.5 30q-66 0 -130 -42l-31 44q83 63 178 63q84 0 136 -53q48 -48 48 -121q0 -53 -28.5 -103.5t-106.5 -137.5l-151 -168h274v-63h-361z" />
    <glyph glyph-name="three" unicode="3" horiz-adv-x="496" 
d="M85 538l-30 44q71 63 170 63q81 0 134 -48q49 -45 49 -115q0 -50 -30 -88.5t-79 -50.5q63 -15 99 -58t36 -104q0 -101 -76 -154q-56 -38 -132 -38q-96 0 -179 66l32 43q63 -44 138 -44q62 0 100 35t38 93q0 123 -147 123h-82v63h82q56 0 88.5 29t32.5 80q0 105 -117 105
q-61 0 -127 -44z" />
    <glyph glyph-name="four" unicode="4" horiz-adv-x="553" 
d="M35 198l284 435h78v-435h116v-63h-116v-135h-73v135h-289v63zM109 198h215v333z" />
    <glyph glyph-name="five" unicode="5" horiz-adv-x="515" 
d="M410 570h-242v-178q30 5 70 5q101 0 160 -56q55 -53 55 -143q0 -99 -71 -160q-58 -50 -138 -50q-105 0 -182 66l29 43q63 -43 137 -43q69 0 108 37.5t39 105.5q0 67 -42 104t-117 37q-50 0 -122 -13v308h316v-63z" />
    <glyph glyph-name="six" unicode="6" horiz-adv-x="523" 
d="M438 595l-26 -42q-53 28 -115 28q-67 0 -109 -61t-46 -164q54 56 129 56q80 0 133 -52q58 -56 58 -157q0 -90 -58 -154q-54 -61 -136 -61q-110 0 -164 105q-42 81 -42 201q0 170 70 266q62 85 161 85q82 0 145 -50zM138 287q1 -115 38 -179q34 -57 91 -57q52 0 84 41.5
t32 110.5q0 72 -33 111t-92 39q-75 0 -120 -66z" />
    <glyph glyph-name="seven" unicode="7" horiz-adv-x="423" 
d="M42 570v63h346v-68l-244 -565h-78l248 570h-272z" />
    <glyph glyph-name="eight" unicode="8" horiz-adv-x="536" 
d="M196 339q-113 43 -113 142q0 77 57 124q51 42 129 42q86 0 139 -54q47 -47 47 -114q0 -47 -30.5 -84.5t-83.5 -56.5q61 -19 96 -63t35 -103q0 -86 -67 -139q-58 -45 -139 -45q-93 0 -152 58q-52 51 -52 125q0 60 37 106.5t97 61.5zM268 363q51 12 80.5 44t29.5 75
q0 45 -30 73t-79 28q-50 0 -79.5 -26.5t-29.5 -71.5q0 -90 108 -122zM266 314q-53 -6 -89 -46.5t-36 -93.5q0 -54 35 -88.5t90 -34.5q56 0 91.5 34t35.5 88q0 55 -36 95t-91 46z" />
    <glyph glyph-name="nine" unicode="9" horiz-adv-x="523" 
d="M91 39l26 42q53 -28 115 -28q66 0 108 60.5t47 163.5q-54 -56 -129 -56q-80 0 -133 52q-58 56 -58 157q0 90 57 154q55 61 137 61q109 0 164 -105q42 -81 42 -201q0 -170 -71 -266q-61 -85 -160 -85q-83 0 -145 51zM391 347q-2 114 -39 178q-34 58 -90 58
q-53 0 -84.5 -42t-31.5 -111q0 -72 32.5 -111t92.5 -39q75 0 120 67z" />
    <glyph glyph-name="colon" unicode=":" horiz-adv-x="224" 
d="M174 280v-2q0 -43 -41 -43q-43 0 -43 44q2 41 43 41t41 -40zM174 40v-2q0 -43 -41 -43q-43 0 -43 44q2 41 43 41t41 -40z" />
    <glyph glyph-name="semicolon" unicode=";" horiz-adv-x="186" 
d="M65 -74q37 30 37 63q0 4 -1 12q-10 -7 -18 -7q-16 0 -27 13t-11 30q0 19 12.5 31.5t31.5 12.5q53 0 53 -72t-66 -107zM86 230q-44 3 -44 46q0 18 13 31t31 13q19 0 32.5 -12.5t13.5 -31.5q1 -44 -46 -46z" />
    <glyph glyph-name="less" unicode="&#x3c;" horiz-adv-x="517" 
d="M466 416l-378 -176l378 -192v-60l-424 214v77l424 198v-61z" />
    <glyph glyph-name="equal" unicode="=" horiz-adv-x="509" 
d="M467 272h-425v55h425v-55zM467 127h-425v55h425v-55z" />
    <glyph glyph-name="greater" unicode="&#x3e;" horiz-adv-x="517" 
d="M430 240l-378 176v61l424 -199v-77l-424 -214v61z" />
    <glyph glyph-name="question" unicode="?" horiz-adv-x="386" 
d="M186 145h-68v86q0 40 11 59.5t51 52.5q89 72 89 142q0 46 -27.5 73t-73.5 27q-51 0 -103 -29l-23 40q67 49 145 49q68 0 110 -42t42 -109q0 -95 -83 -164q-7 -5 -17 -14q-35 -29 -44 -45.5t-9 -51.5v-74zM152 -12q-21 0 -34 14t-13 36q0 19 13.5 33t33.5 14t34.5 -14
t14.5 -33q0 -22 -14 -36t-35 -14z" />
    <glyph glyph-name="at" unicode="@" horiz-adv-x="698" 
d="M430 49q-30 -61 -102 -61q-55 0 -89.5 39.5t-34.5 102.5q0 79 46 124q37 37 90 37q44 0 80 -26l10 27h44v-185q0 -72 49 -72q33 0 52 37.5t19 102.5q0 125 -86 191q-64 50 -149 50q-116 0 -187 -79q-66 -73 -66 -192q0 -146 97 -219q70 -53 166 -53q14 0 27 1l14 2v-48
l-13 -1q-14 -1 -27 -1q-139 0 -231 88q-91 87 -91 228q0 158 103 249q85 75 208 75q128 0 212 -86q79 -81 79 -205q0 -74 -32 -127q-36 -60 -103 -60q-31 0 -54.5 17t-30.5 44zM416 218q-29 25 -71 25q-79 0 -79 -104q0 -101 75 -101t75 104v76z" />
    <glyph glyph-name="A" unicode="A" horiz-adv-x="561" 
d="M242 633h77l227 -633h-76l-51 148h-275l-52 -148h-77zM280 550l-116 -340h233z" />
    <glyph glyph-name="B" unicode="B" horiz-adv-x="536" 
d="M90 1v632q81 12 163 12q115 0 170 -55q43 -44 43 -116q0 -50 -30.5 -87t-80.5 -49v-1q61 -10 96 -55.5t35 -114.5q0 -91 -71 -138q-61 -41 -162 -41q-74 0 -163 13zM164 579v-213h104q54 0 87.5 27.5t33.5 73.5q0 119 -138 119q-53 0 -87 -7zM164 304v-250q42 -6 98 -6
q145 0 145 120q0 64 -36.5 100t-102.5 36h-104z" />
    <glyph glyph-name="C" unicode="C" horiz-adv-x="556" 
d="M498 582l-30 -43q-67 42 -137 42q-96 0 -151 -79q-51 -72 -51 -192q0 -125 66 -195q56 -61 144 -61q72 0 137 47l30 -45q-78 -68 -177 -68q-137 0 -215 106q-64 87 -64 216q0 144 78 242q74 93 189 93q102 0 181 -63z" />
    <glyph glyph-name="D" unicode="D" horiz-adv-x="615" 
d="M90 1v632q84 12 152 12q162 0 248 -98q75 -85 75 -224q0 -169 -93 -257q-82 -78 -225 -78q-71 0 -157 13zM164 579v-525q37 -6 83 -6q119 0 182 76q57 70 57 195q0 135 -79 208q-64 59 -163 59q-51 0 -80 -7z" />
    <glyph glyph-name="E" unicode="E" horiz-adv-x="526" 
d="M86 633h372v-63h-298v-209h251v-63h-251v-235h311v-63h-385v633z" />
    <glyph glyph-name="F" unicode="F" horiz-adv-x="513" 
d="M86 0v633h372v-63h-298v-210h251v-63h-251v-297h-74z" />
    <glyph glyph-name="G" unicode="G" horiz-adv-x="594" 
d="M498 582l-30 -43q-68 42 -140 42q-91 0 -147 -78q-52 -73 -52 -192q0 -128 63 -198q54 -60 140 -60q64 0 120 24v194h-113v65h186v-291q-95 -57 -202 -57q-142 0 -216 114q-57 88 -57 213q0 140 78 237q75 93 192 93q100 0 178 -63z" />
    <glyph glyph-name="H" unicode="H" horiz-adv-x="649" 
d="M164 0h-74v633h74v-272h321v272h74v-633h-74v298h-321v-298z" />
    <glyph glyph-name="I" unicode="I" horiz-adv-x="254" 
d="M164 633v-633h-74v633h74z" />
    <glyph glyph-name="J" unicode="J" horiz-adv-x="238" 
d="M148 633v-670q0 -131 -116 -131q-58 0 -117 39l26 39q36 -20 71 -20q62 0 62 80v663h74z" />
    <glyph glyph-name="K" unicode="K" horiz-adv-x="517" 
d="M90 0v633h73v-279l234 279h89l-252 -298l262 -335h-95l-238 313v1v-314h-73z" />
    <glyph glyph-name="L" unicode="L" horiz-adv-x="468" 
d="M90 0v633h74v-570h249v-63h-323z" />
    <glyph glyph-name="M" unicode="M" horiz-adv-x="772" 
d="M164 526v-526h-74v633h92q68 -157 171 -462q21 -64 33 -96q12 36 21 62q112 329 185 496h90v-633h-74v527q-52 -168 -188 -527h-67q-119 292 -189 526z" />
    <glyph glyph-name="N" unicode="N" horiz-adv-x="638" 
d="M164 0h-74v633h67q91 -137 317 -516v516h74v-633h-69q-54 81 -220 350q-70 114 -95 156v-506z" />
    <glyph glyph-name="O" unicode="O" horiz-adv-x="644" 
d="M322 -12q-137 0 -213 113q-59 88 -59 214q0 146 78 240q74 90 194 90q137 0 213 -114q59 -90 59 -216q0 -146 -78 -239q-74 -88 -194 -88zM129 315q0 -126 55 -197q51 -65 138 -65q100 0 151 84q42 69 42 178q0 126 -55 198q-51 68 -138 68q-99 0 -151 -87
q-42 -70 -42 -179z" />
    <glyph glyph-name="P" unicode="P" horiz-adv-x="518" 
d="M90 0v633q89 12 154 12q224 0 224 -192q0 -97 -63 -149q-57 -46 -153 -46q-43 0 -88 6v-264h-74zM164 579v-255q36 -6 84 -6q142 0 142 135q0 133 -146 133q-46 0 -80 -7z" />
    <glyph glyph-name="Q" unicode="Q" horiz-adv-x="644" 
d="M450 20l123 -129h-86l-99 106q-34 -9 -66 -9q-137 0 -213 112q-59 89 -59 215q0 147 78 241q75 89 194 89q137 0 213 -115q59 -90 59 -215q0 -100 -38.5 -178.5t-105.5 -116.5zM129 315q0 -127 55 -197q51 -65 138 -65q100 0 151 83q42 69 42 179q0 126 -55 198
q-51 68 -138 68q-99 0 -151 -87q-42 -70 -42 -179z" />
    <glyph glyph-name="R" unicode="R" horiz-adv-x="521" 
d="M90 0v633q89 12 154 12q224 0 224 -192q0 -131 -112 -176l127 -277h-75l-117 259l-1 1q-17 -2 -42 -2q-39 0 -84 6v-264h-74zM164 579v-255q36 -6 80 -6q146 0 146 135q0 133 -146 133q-46 0 -80 -7z" />
    <glyph glyph-name="S" unicode="S" horiz-adv-x="506" 
d="M51 52l32 45q73 -42 155 -42q63 0 99 29.5t36 83.5q0 92 -121 134q-103 35 -149 78t-46 105q0 74 58 119q53 41 139 41q94 0 171 -52l-33 -45q-62 33 -133 33q-58 0 -92 -25t-34 -68q0 -67 104 -106q118 -45 165.5 -92.5t47.5 -123.5q0 -87 -67 -137q-55 -41 -134 -41
q-99 0 -198 64z" />
    <glyph glyph-name="T" unicode="T" horiz-adv-x="526" 
d="M25 570v63h476v-63h-209v-570h-74v570h-193z" />
    <glyph glyph-name="U" unicode="U" horiz-adv-x="632" 
d="M90 633h75v-391q0 -189 151 -189q150 0 150 189v391h76v-369q0 -276 -226 -276t-226 276v369z" />
    <glyph glyph-name="V" unicode="V" horiz-adv-x="547" 
d="M95 633l179 -525l177 525h80l-228 -633h-60l-228 633h80z" />
    <glyph glyph-name="W" unicode="W" horiz-adv-x="872" 
d="M395 633h82l146 -525l154 525h80l-199 -633h-68q-69 222 -154 527q-85 -304 -153 -527h-67l-201 633h80l155 -525z" />
    <glyph glyph-name="X" unicode="X" horiz-adv-x="564" 
d="M541 633l-208 -304l216 -329h-86l-175 278l-188 -278h-85l232 328l-198 305h85l159 -247l163 247h85z" />
    <glyph glyph-name="Y" unicode="Y" horiz-adv-x="530" 
d="M15 633h78l172 -320l172 320h78l-213 -385v-248h-73v248z" />
    <glyph glyph-name="Z" unicode="Z" horiz-adv-x="465" 
d="M433 566l-322 -503h329v-63h-415v60l329 510h-320v63h399v-67z" />
    <glyph glyph-name="bracketleft" unicode="[" horiz-adv-x="349" 
d="M277 -140h-186v785h186v-57h-120v-670h120v-58z" />
    <glyph glyph-name="backslash" unicode="\" horiz-adv-x="327" 
d="M279 -30l-317 663h62l317 -663h-62z" />
    <glyph glyph-name="bracketright" unicode="]" horiz-adv-x="349" 
d="M72 645h186v-785h-186v58h121v670h-121v57z" />
    <glyph glyph-name="asciicircum" unicode="^" horiz-adv-x="407" 
d="M175 609h57l140 -291h-61l-108 227l-1 -1l-103 -226h-64z" />
    <glyph glyph-name="underscore" unicode="_" horiz-adv-x="394" 
d="M389 -85h-384v55h384v-55z" />
    <glyph glyph-name="grave" unicode="`" horiz-adv-x="177" 
d="M110 543l-85 112h73l54 -112h-42z" />
    <glyph glyph-name="a" unicode="a" horiz-adv-x="487" 
d="M411 0h-50l-10 49q-61 -61 -152 -61q-69 0 -110 38.5t-41 102.5q0 156 228 156h69v6q0 119 -116 119q-66 0 -127 -44l-22 37q69 63 168 63q79 0 121 -49t42 -141v-276zM345 236h-61q-164 0 -164 -101q0 -43 25.5 -67.5t71.5 -24.5q40 0 77 20t51 50v123z" />
    <glyph glyph-name="b" unicode="b" horiz-adv-x="533" 
d="M129 0h-51v609l67 36v-238q47 59 131 59q103 0 160 -74q49 -62 49 -156q0 -124 -71 -192q-57 -56 -141 -56q-88 0 -135 60zM145 332v-217q13 -32 46.5 -52t73.5 -20q65 0 106.5 50.5t41.5 132.5q0 92 -46 142q-39 43 -100 43q-39 0 -73.5 -22.5t-48.5 -56.5z" />
    <glyph glyph-name="c" unicode="c" horiz-adv-x="471" 
d="M421 418l-22 -38q-51 32 -111 32q-82 0 -128 -60q-40 -52 -40 -130q0 -83 51 -133q47 -46 123 -46q64 0 113 37l22 -40q-56 -52 -150 -52q-110 0 -175 74q-56 65 -56 163q0 110 73 180q63 61 152 61q87 0 148 -48z" />
    <glyph glyph-name="d" unicode="d" horiz-adv-x="533" 
d="M405 0l-11 48q-48 -60 -139 -60q-99 0 -157 74q-50 64 -50 159q0 120 70 188q58 57 143 57q80 0 128 -53v194l66 37v-644h-50zM389 121v217q-13 31 -47 52.5t-72 21.5q-66 0 -108 -51.5t-42 -132.5q0 -92 46 -143q40 -42 100 -42q40 0 73.5 21.5t49.5 56.5z" />
    <glyph glyph-name="e" unicode="e" horiz-adv-x="495" 
d="M447 204h-324q4 -73 50.5 -117t120.5 -44q62 0 121 37l23 -40q-66 -52 -159 -52q-108 0 -172 71q-59 64 -59 166q0 106 63 177q57 64 141 64q101 0 154 -82q41 -64 41 -158v-22zM122 258h256q-3 73 -35.5 114t-89.5 41q-54 0 -90.5 -43t-40.5 -112z" />
    <glyph glyph-name="f" unicode="f" horiz-adv-x="336" 
d="M42 454h65v66q0 59 29 92t82 33q54 0 103 -34l-24 -37q-33 17 -65 17q-59 0 -59 -74v-63h114v-54h-114v-400h-66v400h-65v54z" />
    <glyph glyph-name="g" unicode="g" horiz-adv-x="538" 
d="M398 408l10 46h52v-417q0 -228 -199 -228q-94 0 -166 63l23 37q62 -43 132 -43q74 0 109 41t35 130v9q-49 -58 -134 -58q-99 0 -157 74q-50 64 -50 159q0 120 70 188q58 57 143 57q38 0 75.5 -16.5t56.5 -41.5zM394 121v217q-13 31 -47 52.5t-72 21.5q-66 0 -108 -51.5
t-42 -132.5q0 -92 46 -143q40 -42 100 -42q40 0 73.5 21.5t49.5 56.5z" />
    <glyph glyph-name="h" unicode="h" horiz-adv-x="533" 
d="M460 0h-66v266q0 142 -126 142q-34 0 -70 -17.5t-53 -42.5v-348h-67v610l67 35v-239q62 60 144 60q171 0 171 -195v-271z" />
    <glyph glyph-name="i" unicode="i" horiz-adv-x="232" 
d="M149 454v-454h-66v454h66zM73 602q0 17 13 30t31 13t31 -13t13 -30q0 -19 -13 -31.5t-31 -12.5q-19 0 -31.5 12.5t-12.5 31.5z" />
    <glyph glyph-name="j" unicode="j" horiz-adv-x="235" 
d="M150 454v-520q0 -59 -29.5 -92t-81.5 -33q-55 0 -103 35l24 37q31 -18 65 -18q59 0 59 74v517h66zM72 602q0 17 13 30t31 13t31 -13t13 -30q0 -19 -13 -31.5t-31 -12.5q-19 0 -31.5 12.5t-12.5 31.5z" />
    <glyph glyph-name="k" unicode="k" horiz-adv-x="446" 
d="M402 454l-201 -177l225 -277h-81l-200 252v-252h-67v609l67 36v-343l164 152h93z" />
    <glyph glyph-name="l" unicode="l" horiz-adv-x="223" 
d="M145 645v-645h-67v609z" />
    <glyph glyph-name="m" unicode="m" horiz-adv-x="830" 
d="M757 0h-67v260q0 148 -124 148q-67 0 -124 -58q10 -35 10 -78v-272h-66v264q0 144 -121 144q-32 0 -66.5 -17.5t-53.5 -43.5v-347h-67v454h56l6 -47h3q63 59 145 59q98 0 137 -73q66 73 165 73q82 0 126 -53q41 -50 41 -141v-272z" />
    <glyph glyph-name="n" unicode="n" horiz-adv-x="533" 
d="M460 0h-66v266q0 142 -124 142q-36 0 -71 -17t-54 -43v-348h-67v454h56l6 -48h3q59 60 148 60q169 0 169 -195v-271z" />
    <glyph glyph-name="o" unicode="o" horiz-adv-x="533" 
d="M485 226q0 -108 -68 -177q-61 -61 -150 -61q-103 0 -166 78q-53 66 -53 160q0 110 66 178q60 62 153 62q105 0 167 -79q51 -66 51 -161zM120 226q0 -87 45 -138q40 -45 101 -45q66 0 106.5 50.5t40.5 132.5q0 86 -44 138q-40 48 -102 48q-66 0 -106.5 -51.5t-40.5 -134.5
z" />
    <glyph glyph-name="p" unicode="p" horiz-adv-x="539" 
d="M78 454h53l9 -49q56 61 148 61q98 0 155 -74q48 -63 48 -156q0 -123 -70 -192q-57 -56 -138 -56q-88 0 -138 54v-224h-67v636zM145 331v-215q12 -31 47.5 -52t73.5 -21q69 0 111 50t42 133q0 93 -46 143q-38 42 -100 42q-39 0 -76 -23t-52 -57z" />
    <glyph glyph-name="q" unicode="q" horiz-adv-x="538" 
d="M409 454h51v-639h-66v233q-55 -60 -142 -60q-96 0 -154 74q-50 63 -50 158q0 122 71 190q57 56 141 56q92 0 138 -58zM394 123v214q-14 32 -49 53.5t-74 21.5q-67 0 -108.5 -51.5t-41.5 -132.5q0 -93 46 -143q38 -42 97 -42q41 0 78 22.5t52 57.5z" />
    <glyph glyph-name="r" unicode="r" horiz-adv-x="392" 
d="M374 415l-55 -38q-34 30 -73 30q-57 0 -101 -59v-348h-67v454h57l6 -48h2q59 60 121 60q73 0 110 -51z" />
    <glyph glyph-name="s" unicode="s" horiz-adv-x="415" 
d="M316 386q-50 26 -109 26q-40 0 -62.5 -17.5t-22.5 -47.5q0 -32 20.5 -49.5t78.5 -34.5q82 -25 114 -56t32 -87q0 -59 -44.5 -95.5t-114.5 -36.5q-92 0 -160 50q3 5 10 17q7 13 12 20q58 -32 125 -32q105 0 105 79q0 32 -22.5 50t-83.5 34q-142 40 -142 139q0 53 41.5 87
t106.5 34q77 0 138 -43z" />
    <glyph glyph-name="t" unicode="t" horiz-adv-x="367" 
d="M178 399l-1 -284q0 -73 59 -73q33 0 65 17l24 -37q-49 -34 -103 -34q-53 0 -82 33t-29 92v286h-69v55h70v99l66 34v-133h139v-55h-139z" />
    <glyph glyph-name="u" unicode="u" horiz-adv-x="522" 
d="M444 454v-454h-52l-6 52l-3 -1q-61 -63 -148 -63q-73 0 -115 51.5t-42 142.5v272h67v-260q0 -147 110 -147q34 0 68.5 17t54.5 44v346h66z" />
    <glyph glyph-name="v" unicode="v" horiz-adv-x="441" 
d="M254 0h-68l-171 454h72l134 -375l133 375h72z" />
    <glyph glyph-name="w" unicode="w" horiz-adv-x="692" 
d="M237 0h-72l-150 454h72l114 -376l109 376h77l104 -376l114 376h72l-151 -454h-72l-106 373z" />
    <glyph glyph-name="x" unicode="x" horiz-adv-x="427" 
d="M407 454l-151 -217l158 -237h-74l-124 188l-128 -188h-75l165 234l-141 220h74l106 -169l116 169h74z" />
    <glyph glyph-name="y" unicode="y" horiz-adv-x="457" 
d="M442 454l-198 -523q-45 -122 -124 -122q-50 0 -100 36l22 36q34 -18 60 -18q50 0 87 93l18 44h-17l-175 454h71l144 -385l140 385h72z" />
    <glyph glyph-name="z" unicode="z" horiz-adv-x="410" 
d="M385 0h-360v58l275 341h-258v55h337v-58l-274 -341h280v-55z" />
    <glyph glyph-name="braceleft" unicode="{" horiz-adv-x="377" 
d="M48 226v58q49 3 77.5 42t28.5 103v48q0 95 31.5 131.5t114.5 36.5h20v-58h-20q-50 0 -65 -21t-15 -89v-48q0 -127 -103 -175q55 -25 79 -65.5t24 -109.5v-50q0 -69 15 -90t65 -21h20v-57h-20q-92 0 -122 46q-24 36 -24 122v50q0 62 -29 101.5t-77 45.5z" />
    <glyph glyph-name="bar" unicode="|" horiz-adv-x="242" 
d="M152 662v-841h-62v841h62z" />
    <glyph glyph-name="braceright" unicode="}" horiz-adv-x="377" 
d="M329 284v-58q-49 -6 -77.5 -45.5t-28.5 -101.5v-50q0 -96 -31.5 -132t-114.5 -36h-20v57h20q50 0 65 21t15 90v50q0 69 23.5 109.5t79.5 65.5q-103 48 -103 175v48q0 68 -15 89t-65 21h-20v58h20q91 0 122 -46q24 -36 24 -122v-48q0 -64 28 -103t78 -42z" />
    <glyph glyph-name="asciitilde" unicode="~" horiz-adv-x="483" 
d="M68 199l-26 18q29 88 99 88q36 0 114 -35q62 -28 89 -28q47 0 69 51l28 -18q-24 -87 -88 -87q-34 0 -109 32q-7 3 -23 10q-47 21 -78 21q-45 0 -75 -52z" />
    <glyph glyph-name="exclamdown" unicode="&#xa1;" horiz-adv-x="216" 
d="M73 315h67v-484h-67v484zM150 428q0 -40 -41 -40t-43 41q0 44 43 44q41 0 41 -43v-2z" />
    <glyph glyph-name="cent" unicode="&#xa2;" horiz-adv-x="474" 
d="M294 -11v-41h-36v41q-101 7 -159 79q-51 64 -51 157q0 105 67 175q59 60 143 66v46h36v-47q71 -4 127 -47l-22 -38q-49 30 -105 32v-369h1q63 0 112 37l22 -40q-50 -47 -135 -51zM258 47v361q-63 -10 -100.5 -60.5t-37.5 -125.5q0 -70 37 -117.5t101 -57.5z" />
    <glyph glyph-name="sterling" unicode="&#xa3;" horiz-adv-x="474" 
d="M349 313h-161v-250h242v-63h-386v63h70v250h-72v57h72v59q0 216 176 216q82 0 156 -61l-31 -45q-61 41 -116 41q-111 0 -111 -143v-67h161v-57z" />
    <glyph glyph-name="currency" unicode="&#xa4;" horiz-adv-x="482" 
d="M431 96l-82 80q-41 -29 -101 -29q-61 0 -101 29l-79 -78q-2 -1 -4 -1q-8 0 -21.5 14t-13.5 23q0 2 1 2l77 75q-34 45 -34 104q0 58 36 104l-79 78q-2 1 -2 4q0 9 13 22t22 13q2 0 4 -2l80 -80q44 29 101 29q56 0 101 -29l81 79q1 2 5 2q9 0 21 -11.5t12 -20.5q0 -3 -2 -5
l-78 -78q33 -45 33 -105q0 -58 -33 -103l79 -77q2 -1 2 -4q0 -10 -12.5 -23.5t-21.5 -13.5q-3 0 -4 2zM249 203q50 0 78.5 30t28.5 83q0 52 -28.5 82t-78.5 30q-49 0 -79.5 -31t-31.5 -81q0 -51 30.5 -82t80.5 -31z" />
    <glyph glyph-name="yen" unicode="&#xa5;" horiz-adv-x="530" 
d="M302 0h-73v132h-178v55h178v61l-10 18h-168v55h137l-173 312h78l168 -312h8l168 312h78l-173 -312h133v-55h-164l-9 -18v-61h173v-55h-173v-132z" />
    <glyph glyph-name="brokenbar" unicode="&#xa6;" horiz-adv-x="230" 
d="M84 222h62v-408h-62v408zM146 669v-373h-62v373h62z" />
    <glyph glyph-name="section" unicode="&#xa7;" horiz-adv-x="449" 
d="M67 -93l21 35q53 -25 114 -25q116 0 116 93q0 69 -106 103q-162 50 -162 155q0 86 86 126q-66 46 -66 116q0 61 42 98t113 37q79 0 141 -43l-23 -35q-50 25 -108 25q-44 0 -70 -20.5t-26 -55.5q0 -69 119 -112q76 -28 108.5 -64.5t32.5 -95.5q0 -75 -74 -114
q62 -40 62 -119q0 -67 -47 -109t-120 -42q-86 0 -153 47zM168 374q-51 -35 -51 -91q2 -44 29 -70t92 -47q19 -6 48 -17q2 0 3 1q46 31 46 86q0 73 -91 106q-53 19 -76 32z" />
    <glyph glyph-name="dieresis" unicode="&#xa8;" horiz-adv-x="308" 
d="M34 602q0 18 13 30.5t31 12.5t31 -13t13 -30q0 -19 -13 -31.5t-31 -12.5q-19 0 -31.5 12.5t-12.5 31.5zM185 602q0 17 13 30t31 13t31 -13t13 -30q0 -19 -13 -31.5t-31 -12.5q-19 0 -31.5 12.5t-12.5 31.5z" />
    <glyph glyph-name="copyright" unicode="&#xa9;" horiz-adv-x="699" 
d="M481 459l-15 -32q-45 28 -99 28q-57 0 -92.5 -40.5t-35.5 -106.5q0 -60 37.5 -98.5t96.5 -38.5q55 0 96 31l18 -35q-51 -44 -128 -44q-85 0 -137 60q-44 52 -44 128q0 86 57 142q51 49 123 49q71 0 123 -43zM48 315q0 133 100 224q86 78 201 78q133 0 224 -100
q78 -86 78 -202q0 -133 -100 -223q-87 -78 -202 -78q-133 0 -223 100q-78 86 -78 201zM102 315q0 -113 81 -187q70 -64 168 -64q112 0 185 82q64 71 64 169q0 112 -82 186q-71 64 -169 64q-113 0 -185 -82q-62 -70 -62 -168z" />
    <glyph glyph-name="ordfeminine" unicode="&#xaa;" horiz-adv-x="268" 
d="M231 406h-40l-5 35q-25 -41 -73 -41q-35 0 -57.5 20.5t-22.5 52.5q0 79 122 79h27v2q0 53 -53 53q-31 0 -67 -26l-16 30q43 34 92 34q93 0 93 -101v-138zM181 521h-20q-78 0 -78 -45q0 -36 40 -36q45 0 58 45v36z" />
    <glyph glyph-name="guillemotleft" unicode="&#xab;" horiz-adv-x="502" 
d="M260 18q-59 14 -117 72t-93 140q35 81 93 139t117 73v-60q-93 -46 -142 -152q49 -107 142 -153v-59zM462 18q-59 14 -116.5 72.5t-92.5 139.5q35 81 92.5 139t116.5 73v-60q-91 -46 -142 -152q51 -108 142 -152v-60z" />
    <glyph glyph-name="logicalnot" unicode="&#xac;" horiz-adv-x="467" 
d="M42 158v66h383v-224h-75v158h-308z" />
    <glyph glyph-name="registered" unicode="&#xae;" horiz-adv-x="414" 
d="M204 470h-19v-60h-33v157h56q57 0 57 -47q0 -32 -28 -44l35 -66h-39zM185 541v-44h19q28 0 28 21q0 23 -28 23h-19zM207 322q-72 0 -120 54q-42 46 -42 108q0 71 54 120q46 41 108 41q72 0 120 -53q42 -46 42 -108q0 -72 -54 -120q-46 -42 -108 -42zM207 611
q-53 0 -89.5 -37t-36.5 -90q0 -54 36.5 -91t89.5 -37t90 37t37 91q0 52 -37 89.5t-90 37.5z" />
    <glyph glyph-name="macron" unicode="&#xaf;" horiz-adv-x="231" 
d="M215 581h-199v52h199v-52z" />
    <glyph glyph-name="degree" unicode="&#xb0;" horiz-adv-x="278" 
d="M25 538q0 49 32.5 81.5t81.5 32.5t81.5 -32.5t32.5 -81.5t-32.5 -81.5t-81.5 -32.5t-81.5 32.5t-32.5 81.5zM61 538q0 -34 21.5 -56t56.5 -22t57 21.5t22 56.5t-22.5 57t-56.5 22q-35 0 -56.5 -22t-21.5 -57z" />
    <glyph glyph-name="plusminus" unicode="&#xb1;" horiz-adv-x="509" 
d="M223 251h-181v55h181v148h62v-148h182v-55h-182v-148h-62v148zM467 0h-425v55h425v-55z" />
    <glyph glyph-name="twosuperior" unicode="&#xb2;" horiz-adv-x="354" 
d="M62 316v52l104 88q61 51 61 85q0 53 -63 53q-38 0 -80 -29l-26 31q55 49 115 49q50 0 81 -27.5t31 -72.5q0 -58 -70 -120l-66 -57h135v-52h-222z" />
    <glyph glyph-name="threesuperior" unicode="&#xb3;" horiz-adv-x="371" 
d="M141 463v51h40q57 0 57 39q0 41 -57 41q-38 0 -80 -23l-25 28q52 46 114 46q50 0 78.5 -23t28.5 -63q0 -23 -15 -42.5t-38 -25.5q59 -17 59 -82q0 -42 -34 -68.5t-86 -26.5q-56 0 -107 45l27 30q37 -23 75 -23q65 0 65 47q0 50 -63 50h-39z" />
    <glyph glyph-name="acute" unicode="&#xb4;" horiz-adv-x="177" 
d="M152 655l-85 -112h-42l54 112h73z" />
    <glyph glyph-name="mu" unicode="&#xb5;" horiz-adv-x="557" 
d="M146 -178h-68v632h68v-268q0 -136 105 -136q35 0 67 17.5t50 46.5v340h67v-353q0 -58 39 -58q17 0 38 14l21 -34q-35 -36 -77 -36q-74 0 -86 71q-23 -31 -61 -50.5t-76 -19.5q-55 0 -87 29v-195z" />
    <glyph glyph-name="paragraph" unicode="&#xb6;" horiz-adv-x="445" 
d="M355 0h-37v633h37v-633zM250 0v365h-43q-161 0 -161 131q0 62 42.5 99.5t113.5 37.5h86v-633h-38z" />
    <glyph glyph-name="periodcentered" unicode="&#xb7;" horiz-adv-x="175" 
d="M86 308q-20 0 -33.5 14t-13.5 36q0 19 14 33t33 14q21 0 35.5 -14t14.5 -33q0 -22 -14 -36t-36 -14z" />
    <glyph glyph-name="cedilla" unicode="&#xb8;" horiz-adv-x="213" 
d="M72 10h46l-12 -40q9 2 20 2q62 0 62 -58q0 -32 -25.5 -53t-65.5 -21q-36 0 -72 16l12 36q29 -13 56 -13q45 0 45 34t-47 34q-17 0 -35 -2z" />
    <glyph glyph-name="onesuperior" unicode="&#xb9;" horiz-adv-x="280" 
d="M191 633v-315h-55v245l-67 -58l-37 38l100 90h59z" />
    <glyph glyph-name="ordmasculine" unicode="&#xba;" horiz-adv-x="290" 
d="M145 400q-48 0 -80 35t-32 87q0 55 31 89t81 34q49 0 80.5 -34.5t31.5 -88.5q0 -52 -32 -87t-80 -35zM145 609q-60 0 -60 -87q0 -38 16.5 -61.5t43.5 -23.5q61 0 61 85q0 39 -16.5 63t-44.5 24z" />
    <glyph glyph-name="guillemotright" unicode="&#xbb;" horiz-adv-x="502" 
d="M40 18v60q93 45 142 152q-49 105 -142 152v60q59 -15 117 -73.5t93 -138.5q-35 -81 -93 -139.5t-117 -72.5zM243 18v60q91 44 142 152q-51 106 -142 152v60q59 -15 116.5 -73t92.5 -139q-35 -81 -92.5 -139.5t-116.5 -72.5z" />
    <glyph glyph-name="onequarter" unicode="&#xbc;" horiz-adv-x="820" 
d="M474 119l166 199h56v-202h60v-51h-60v-65h-55v65h-167v54zM540 116h101v127zM235 633v-315h-55v245l-67 -58l-37 38l100 90h59zM617 633l-384 -663h-53l384 663h53z" />
    <glyph glyph-name="onehalf" unicode="&#xbd;" horiz-adv-x="831" 
d="M235 633v-315h-55v245l-67 -58l-37 38l100 90h59zM529 0v52l104 88q61 51 61 85q0 53 -63 53q-38 0 -80 -29l-26 31q55 49 115 49q50 0 81 -27.5t31 -72.5q0 -58 -70 -120l-66 -57h135v-52h-222zM610 633l-384 -663h-53l384 663h53z" />
    <glyph glyph-name="threequarters" unicode="&#xbe;" horiz-adv-x="858" 
d="M502 119l167 199h55v-202h60v-51h-60v-65h-55v65h-167v54zM568 116h101v127zM141 463v51h40q57 0 57 39q0 41 -57 41q-38 0 -80 -23l-25 28q52 46 114 46q50 0 78.5 -23t28.5 -63q0 -23 -15 -42.5t-38 -25.5q59 -17 59 -82q0 -42 -34 -68.5t-86 -26.5q-56 0 -107 45
l27 30q37 -23 75 -23q65 0 65 47q0 50 -63 50h-39zM643 633l-384 -663h-53l384 663h53z" />
    <glyph glyph-name="questiondown" unicode="&#xbf;" horiz-adv-x="392" 
d="M203 309h68v-87q0 -40 -11 -59.5t-52 -52.5q-88 -72 -88 -142q0 -46 27 -72.5t74 -26.5q51 0 103 29l23 -40q-68 -50 -145 -50q-68 0 -110 42t-42 110q0 93 83 163q4 4 14 12l2 2q36 29 45 45.5t9 51.5v75zM237 465q20 0 33.5 -14t13.5 -35q0 -20 -14 -33.5t-33 -13.5
q-21 0 -35 13.5t-14 33.5q0 21 13.5 35t35.5 14z" />
    <glyph glyph-name="Agrave" unicode="&#xc0;" horiz-adv-x="576" 
d="M242 633h77l227 -633h-76l-51 148h-275l-52 -148h-77zM280 550l-116 -340h233zM246 711l-84 112h72l54 -112h-42z" />
    <glyph glyph-name="Aacute" unicode="&#xc1;" horiz-adv-x="576" 
d="M242 633h77l227 -633h-76l-51 148h-275l-52 -148h-77zM280 550l-116 -340h233zM388 823l-85 -112h-42l54 112h73z" />
    <glyph glyph-name="Acircumflex" unicode="&#xc2;" horiz-adv-x="576" 
d="M242 633h77l227 -633h-76l-51 148h-275l-52 -148h-77zM280 550l-116 -340h233zM257 823h47l78 -112h-55l-46 68l-2 -1l-47 -67h-54z" />
    <glyph glyph-name="Atilde" unicode="&#xc3;" horiz-adv-x="576" 
d="M242 633h77l227 -633h-76l-51 148h-275l-52 -148h-77zM280 550l-116 -340h233zM174 714l-27 17q24 76 83 76q28 0 68 -25q32 -19 46 -19q27 0 50 45l27 -18q-25 -76 -79 -76q-21 0 -58 20q-2 1 -7 4l-2 1q-30 18 -45 18q-17 0 -33.5 -13t-22.5 -30z" />
    <glyph glyph-name="Adieresis" unicode="&#xc4;" horiz-adv-x="576" 
d="M242 633h77l227 -633h-76l-51 148h-275l-52 -148h-77zM280 550l-116 -340h233zM161 770q0 18 13 30.5t31 12.5t31 -13t13 -30q0 -19 -13 -31.5t-31 -12.5q-19 0 -31.5 12.5t-12.5 31.5zM312 770q0 17 13 30t31 13t31 -13t13 -30q0 -19 -13 -31.5t-31 -12.5
q-19 0 -31.5 12.5t-12.5 31.5z" />
    <glyph glyph-name="Aring" unicode="&#xc5;" horiz-adv-x="576" 
d="M242 633h77l227 -633h-76l-51 148h-275l-52 -148h-77zM280 550l-116 -340h233zM218 763q0 26 18 44.5t45 18.5q26 0 44.5 -18.5t18.5 -44.5t-18.5 -44.5t-44.5 -18.5q-27 0 -45 18.5t-18 44.5zM248 763q0 -32 32 -32q14 0 24 9.5t10 22.5t-10 23t-24 10q-32 0 -32 -33z
" />
    <glyph glyph-name="AE" unicode="&#xc6;" horiz-adv-x="785" 
d="M723 633v-63h-298v-209h251v-63h-251v-235h311v-63h-385v152h-198l-61 -152h-77l275 633h433zM330 569l-151 -355h172v355h-21z" />
    <glyph glyph-name="Ccedilla" unicode="&#xc7;" horiz-adv-x="566" 
d="M496 582l-30 -43q-67 42 -137 42q-96 0 -151 -79q-51 -72 -51 -192q0 -125 66 -195q56 -61 144 -61q72 0 137 47l30 -45q-71 -62 -163 -67l-5 -19q9 2 20 2q62 0 62 -58q0 -32 -25.5 -53t-65.5 -21q-36 0 -72 16l12 36q29 -13 56 -13q45 0 45 34t-47 34q-17 0 -35 -2
l11 45q-124 11 -192 114q-57 85 -57 206q0 144 78 242q74 93 189 93q102 0 181 -63z" />
    <glyph glyph-name="Egrave" unicode="&#xc8;" horiz-adv-x="526" 
d="M82 633h372v-63h-298v-209h251v-63h-251v-235h311v-63h-385v633zM262 712l-85 112h73l54 -112h-42z" />
    <glyph glyph-name="Eacute" unicode="&#xc9;" horiz-adv-x="526" 
d="M82 633h372v-63h-298v-209h251v-63h-251v-235h311v-63h-385v633zM348 819l-85 -112h-42l54 112h73z" />
    <glyph glyph-name="Ecircumflex" unicode="&#xca;" horiz-adv-x="526" 
d="M82 633h372v-63h-298v-209h251v-63h-251v-235h311v-63h-385v633zM244 823h48l77 -112h-55l-45 68l-2 -1l-47 -67h-54z" />
    <glyph glyph-name="Edieresis" unicode="&#xcb;" horiz-adv-x="526" 
d="M82 633h372v-63h-298v-209h251v-63h-251v-235h311v-63h-385v633zM150 770q0 18 13 30.5t31 12.5t31 -13t13 -30q0 -19 -13 -31.5t-31 -12.5q-19 0 -31.5 12.5t-12.5 31.5zM301 770q0 17 13 30t31 13t31 -13t13 -30q0 -19 -13 -31.5t-31 -12.5q-19 0 -31.5 12.5
t-12.5 31.5z" />
    <glyph glyph-name="Igrave" unicode="&#xcc;" horiz-adv-x="272" 
d="M164 633v-633h-73v633h73zM106 711l-85 112h73l54 -112h-42z" />
    <glyph glyph-name="Iacute" unicode="&#xcd;" horiz-adv-x="272" 
d="M164 633v-633h-74v633h74zM235 823l-84 -112h-42l54 112h72z" />
    <glyph glyph-name="Icircumflex" unicode="&#xce;" horiz-adv-x="272" 
d="M164 633v-633h-73v633h73zM106 834h47l78 -112h-55l-46 68l-2 -1l-47 -67h-54z" />
    <glyph glyph-name="Idieresis" unicode="&#xcf;" horiz-adv-x="272" 
d="M164 633v-633h-73v633h73zM8 770q0 18 13 30.5t31 12.5t31 -13t13 -30q0 -19 -13 -31.5t-31 -12.5q-19 0 -31.5 12.5t-12.5 31.5zM159 770q0 17 13 30t31 13t31 -13t13 -30q0 -19 -13 -31.5t-31 -12.5q-19 0 -31.5 12.5t-12.5 31.5z" />
    <glyph glyph-name="Eth" unicode="&#xd0;" horiz-adv-x="655" 
d="M119 299h-78v57h78v278q86 11 152 11q163 0 249 -98q74 -85 74 -224q0 -169 -93 -257q-82 -78 -224 -78q-68 0 -158 12v299zM193 575v-219h152v-57h-152v-241q42 -9 84 -9q119 0 181 76q57 69 57 194q0 135 -79 207q-64 58 -162 58q-42 0 -81 -9z" />
    <glyph glyph-name="Ntilde" unicode="&#xd1;" horiz-adv-x="675" 
d="M164 0h-74v633h67q91 -137 317 -516v516h74v-633h-69q-54 81 -220 350q-70 114 -95 156v-506zM210 705l-27 17q25 76 83 76q28 0 69 -25q32 -19 46 -19q27 0 49 45l28 -18q-26 -76 -79 -76q-22 0 -58 20q-3 1 -9 5q-30 18 -46 18t-33 -13t-23 -30z" />
    <glyph glyph-name="Ograve" unicode="&#xd2;" horiz-adv-x="654" 
d="M322 -12q-137 0 -213 113q-59 88 -59 214q0 146 78 240q74 90 194 90q137 0 213 -114q59 -90 59 -216q0 -146 -78 -239q-74 -88 -194 -88zM129 315q0 -126 55 -197q51 -65 138 -65q100 0 151 84q42 69 42 178q0 126 -55 198q-51 68 -138 68q-99 0 -151 -87
q-42 -70 -42 -179zM310 710l-85 112h73l54 -112h-42z" />
    <glyph glyph-name="Oacute" unicode="&#xd3;" horiz-adv-x="654" 
d="M322 -12q-137 0 -213 113q-59 88 -59 214q0 146 78 240q74 90 194 90q137 0 213 -114q59 -90 59 -216q0 -146 -78 -239q-74 -88 -194 -88zM129 315q0 -126 55 -197q51 -65 138 -65q100 0 151 84q42 69 42 178q0 126 -55 198q-51 68 -138 68q-99 0 -151 -87
q-42 -70 -42 -179zM424 822l-84 -112h-42l54 112h72z" />
    <glyph glyph-name="Ocircumflex" unicode="&#xd4;" horiz-adv-x="654" 
d="M322 -12q-137 0 -213 113q-59 88 -59 214q0 146 78 240q74 90 194 90q137 0 213 -114q59 -90 59 -216q0 -146 -78 -239q-74 -88 -194 -88zM129 315q0 -126 55 -197q51 -65 138 -65q100 0 151 84q42 69 42 178q0 126 -55 198q-51 68 -138 68q-99 0 -151 -87
q-42 -70 -42 -179zM302 822h47l78 -112h-55l-46 68l-2 -1l-47 -67h-54z" />
    <glyph glyph-name="Otilde" unicode="&#xd5;" horiz-adv-x="654" 
d="M322 -12q-137 0 -213 113q-59 88 -59 214q0 146 78 240q74 90 194 90q137 0 213 -114q59 -90 59 -216q0 -146 -78 -239q-74 -88 -194 -88zM129 315q0 -126 55 -197q51 -65 138 -65q100 0 151 84q42 69 42 178q0 126 -55 198q-51 68 -138 68q-99 0 -151 -87
q-42 -70 -42 -179zM214 714l-27 17q25 76 83 76q28 0 69 -25q32 -19 46 -19q27 0 49 45l28 -18q-26 -76 -79 -76q-22 0 -58 20q-3 1 -9 5q-30 18 -46 18t-33 -13t-23 -30z" />
    <glyph glyph-name="Odieresis" unicode="&#xd6;" horiz-adv-x="654" 
d="M322 -12q-137 0 -213 113q-59 88 -59 214q0 146 78 240q74 90 194 90q137 0 213 -114q59 -90 59 -216q0 -146 -78 -239q-74 -88 -194 -88zM129 315q0 -126 55 -197q51 -65 138 -65q100 0 151 84q42 69 42 178q0 126 -55 198q-51 68 -138 68q-99 0 -151 -87
q-42 -70 -42 -179zM205 770q0 18 12.5 30.5t31.5 12.5q17 0 30 -13t13 -30q0 -19 -12.5 -31.5t-30.5 -12.5q-19 0 -31.5 12.5t-12.5 31.5zM356 770q0 17 12.5 30t30.5 13t31 -13t13 -30q0 -19 -12.5 -31.5t-31.5 -12.5q-18 0 -30.5 12.5t-12.5 31.5z" />
    <glyph glyph-name="multiply" unicode="&#xd7;" horiz-adv-x="501" 
d="M81 5q-12 11 -31 30q-9 9 -14 15l180 182l-112 119l-56 59l15 15q17 16 27 27l164 -179q27 29 78 83l12 13q52 56 79 84l43 -43l-171 -179q22 -25 74 -82q64 -69 94 -103l-41 -41l-165 185z" />
    <glyph glyph-name="Oslash" unicode="&#xd8;" horiz-adv-x="644" 
d="M216 10l-19 -40h-63l33 68q-117 90 -117 277q0 146 78 240q74 90 194 90q70 0 127 -33l16 33h62l-33 -66q100 -94 100 -264q0 -146 -78 -239q-74 -88 -194 -88q-57 0 -106 22zM198 102l221 450q-42 29 -97 29q-99 0 -151 -87q-42 -70 -42 -179q0 -144 69 -213zM245 69
q35 -16 77 -16q100 0 151 84q42 69 42 178q0 124 -54 196z" />
    <glyph glyph-name="Ugrave" unicode="&#xd9;" horiz-adv-x="644" 
d="M90 633h75v-391q0 -189 151 -189q150 0 150 189v391h76v-369q0 -276 -226 -276t-226 276v369zM301 710l-85 112h73l54 -112h-42z" />
    <glyph glyph-name="Uacute" unicode="&#xda;" horiz-adv-x="644" 
d="M90 633h75v-391q0 -189 151 -189q150 0 150 189v391h76v-369q0 -276 -226 -276t-226 276v369zM405 822l-85 -112h-42l54 112h73z" />
    <glyph glyph-name="Ucircumflex" unicode="&#xdb;" horiz-adv-x="644" 
d="M90 633h75v-391q0 -189 151 -189q150 0 150 189v391h76v-369q0 -276 -226 -276t-226 276v369zM292 822h48l77 -112h-55l-45 68l-2 -1l-47 -67h-54z" />
    <glyph glyph-name="Udieresis" unicode="&#xdc;" horiz-adv-x="644" 
d="M90 633h75v-391q0 -189 151 -189q150 0 150 189v391h76v-369q0 -276 -226 -276t-226 276v369zM197 771q0 18 13 30.5t31 12.5t31 -13t13 -30q0 -19 -13 -31.5t-31 -12.5q-19 0 -31.5 12.5t-12.5 31.5zM348 771q0 17 13 30t31 13t31 -13t13 -30q0 -19 -13 -31.5t-31 -12.5
q-19 0 -31.5 12.5t-12.5 31.5z" />
    <glyph glyph-name="Yacute" unicode="&#xdd;" horiz-adv-x="530" 
d="M15 633h78l172 -320l172 320h78l-213 -385v-248h-73v248zM366 818l-85 -112h-42l54 112h73z" />
    <glyph glyph-name="Thorn" unicode="&#xde;" horiz-adv-x="533" 
d="M90 0v633h73v-113q41 11 81 11q225 0 225 -191q0 -104 -69 -157q-56 -44 -144 -44q-41 0 -92 9v-148h-74zM164 460v-250q42 -9 92 -9q134 0 134 139q0 130 -143 130q-50 0 -83 -10z" />
    <glyph glyph-name="germandbls" unicode="&#xdf;" horiz-adv-x="500" 
d="M189 9l16 46q36 -12 65 -12q46 0 75.5 35t29.5 90q0 135 -126 135h-25v58h22q48 0 77.5 33t29.5 89q0 48 -30 78.5t-78 30.5q-46 0 -73 -29.5t-27 -79.5v-483h-67v469q0 177 168 177q87 0 138 -54q42 -45 42 -108q0 -55 -32 -94.5t-85 -51.5q142 -32 142 -172
q0 -94 -66 -144q-46 -34 -102 -34q-49 0 -94 21z" />
    <glyph glyph-name="agrave" unicode="&#xe0;" horiz-adv-x="495" 
d="M411 0h-50l-10 49q-61 -61 -152 -61q-69 0 -110 38.5t-41 102.5q0 156 228 156h69v6q0 119 -116 119q-66 0 -127 -44l-22 37q69 63 168 63q79 0 121 -49t42 -141v-276zM345 236h-61q-164 0 -164 -101q0 -43 25.5 -67.5t71.5 -24.5q40 0 77 20t51 50v123zM235 538l-84 112
h72l54 -112h-42z" />
    <glyph glyph-name="aacute" unicode="&#xe1;" horiz-adv-x="495" 
d="M411 0h-50l-10 49q-61 -61 -152 -61q-69 0 -110 38.5t-41 102.5q0 156 228 156h69v6q0 119 -116 119q-66 0 -127 -44l-22 37q69 63 168 63q79 0 121 -49t42 -141v-276zM345 236h-61q-164 0 -164 -101q0 -43 25.5 -67.5t71.5 -24.5q40 0 77 20t51 50v123zM335 650
l-85 -112h-42l54 112h73z" />
    <glyph glyph-name="acircumflex" unicode="&#xe2;" horiz-adv-x="495" 
d="M411 0h-50l-10 49q-61 -61 -152 -61q-69 0 -110 38.5t-41 102.5q0 156 228 156h69v6q0 119 -116 119q-66 0 -127 -44l-22 37q69 63 168 63q79 0 121 -49t42 -141v-276zM345 236h-61q-164 0 -164 -101q0 -43 25.5 -67.5t71.5 -24.5q40 0 77 20t51 50v123zM221 655h48
l77 -112h-55l-45 68l-2 -1l-47 -67h-54z" />
    <glyph glyph-name="atilde" unicode="&#xe3;" horiz-adv-x="495" 
d="M411 0h-50l-10 49q-61 -61 -152 -61q-69 0 -110 38.5t-41 102.5q0 156 228 156h69v6q0 119 -116 119q-66 0 -127 -44l-22 37q69 63 168 63q79 0 121 -49t42 -141v-276zM345 236h-61q-164 0 -164 -101q0 -43 25.5 -67.5t71.5 -24.5q40 0 77 20t51 50v123zM136 548l-27 17
q25 76 83 76q28 0 69 -25q32 -19 46 -19q27 0 49 45l28 -18q-26 -76 -79 -76q-22 0 -58 20q-3 1 -9 5q-30 18 -46 18t-33 -13t-23 -30z" />
    <glyph glyph-name="adieresis" unicode="&#xe4;" horiz-adv-x="495" 
d="M411 0h-50l-10 49q-61 -61 -152 -61q-69 0 -110 38.5t-41 102.5q0 156 228 156h69v6q0 119 -116 119q-66 0 -127 -44l-22 37q69 63 168 63q79 0 121 -49t42 -141v-276zM345 236h-61q-164 0 -164 -101q0 -43 25.5 -67.5t71.5 -24.5q40 0 77 20t51 50v123zM130 602
q0 18 12.5 30.5t31.5 12.5q17 0 30 -13t13 -30q0 -19 -12.5 -31.5t-30.5 -12.5q-19 0 -31.5 12.5t-12.5 31.5zM281 602q0 17 12.5 30t30.5 13t31 -13t13 -30q0 -19 -12.5 -31.5t-31.5 -12.5q-18 0 -30.5 12.5t-12.5 31.5z" />
    <glyph glyph-name="aring" unicode="&#xe5;" horiz-adv-x="495" 
d="M411 0h-50l-10 49q-61 -61 -152 -61q-69 0 -110 38.5t-41 102.5q0 156 228 156h69v6q0 119 -116 119q-66 0 -127 -44l-22 37q69 63 168 63q79 0 121 -49t42 -141v-276zM345 236h-61q-164 0 -164 -101q0 -43 25.5 -67.5t71.5 -24.5q40 0 77 20t51 50v123zM182 594
q0 26 18 44.5t45 18.5q26 0 44.5 -18.5t18.5 -44.5t-18.5 -44.5t-44.5 -18.5q-27 0 -45 18.5t-18 44.5zM212 594q0 -32 32 -32q14 0 24 9.5t10 22.5t-10 23t-24 10q-32 0 -32 -33z" />
    <glyph glyph-name="ae" unicode="&#xe6;" horiz-adv-x="795" 
d="M741 204h-323l2 -16q8 -66 53.5 -105.5t114.5 -39.5q63 0 122 37l22 -40q-65 -52 -159 -52q-128 0 -189 93h-1q-45 -51 -86.5 -72t-97.5 -21q-69 0 -110 38.5t-41 102.5q0 156 228 156h69v6q0 119 -116 119q-66 0 -127 -44l-22 37q69 63 168 63q105 0 143 -87
q57 87 156 87q101 0 153 -82q41 -64 41 -158v-22zM345 236h-61q-164 0 -164 -101q0 -43 25.5 -67.5t71.5 -24.5q40 0 77 20t51 50v123zM416 258h256q-2 73 -34.5 114t-89.5 41q-55 0 -91 -43t-41 -112z" />
    <glyph glyph-name="ccedilla" unicode="&#xe7;" horiz-adv-x="481" 
d="M230 -55l11 46q-94 13 -147 83q-46 62 -46 151q0 110 73 180q63 61 152 61q87 0 148 -48l-22 -38q-51 32 -111 32q-82 0 -128 -60q-40 -52 -40 -130q0 -83 51 -133q47 -46 123 -46q64 0 113 37l22 -40q-52 -48 -137 -51h-7l-5 -19q9 2 20 2q62 0 62 -58q0 -32 -25.5 -53
t-65.5 -21q-36 0 -72 16l12 36q29 -13 56 -13q45 0 45 34t-47 34q-17 0 -35 -2z" />
    <glyph glyph-name="egrave" unicode="&#xe8;" horiz-adv-x="512" 
d="M447 204h-324q4 -73 50.5 -117t120.5 -44q62 0 121 37l23 -40q-66 -52 -159 -52q-108 0 -172 71q-59 64 -59 166q0 106 63 177q57 64 141 64q101 0 154 -82q41 -64 41 -158v-22zM122 258h256q-3 73 -35.5 114t-89.5 41q-54 0 -90.5 -43t-40.5 -112zM233 543l-85 112h73
l54 -112h-42z" />
    <glyph glyph-name="eacute" unicode="&#xe9;" horiz-adv-x="512" 
d="M447 204h-324q4 -73 50.5 -117t120.5 -44q62 0 121 37l23 -40q-66 -52 -159 -52q-108 0 -172 71q-59 64 -59 166q0 106 63 177q57 64 141 64q101 0 154 -82q41 -64 41 -158v-22zM122 258h256q-3 73 -35.5 114t-89.5 41q-54 0 -90.5 -43t-40.5 -112zM358 655l-84 -112h-42
l54 112h72z" />
    <glyph glyph-name="ecircumflex" unicode="&#xea;" horiz-adv-x="512" 
d="M447 204h-324q4 -73 50.5 -117t120.5 -44q62 0 121 37l23 -40q-66 -52 -159 -52q-108 0 -172 71q-59 64 -59 166q0 106 63 177q57 64 141 64q101 0 154 -82q41 -64 41 -158v-22zM122 258h256q-3 73 -35.5 114t-89.5 41q-54 0 -90.5 -43t-40.5 -112zM228 655h47l78 -112
h-55l-46 68l-2 -1l-47 -67h-54z" />
    <glyph glyph-name="edieresis" unicode="&#xeb;" horiz-adv-x="512" 
d="M447 204h-324q4 -73 50.5 -117t120.5 -44q62 0 121 37l23 -40q-66 -52 -159 -52q-108 0 -172 71q-59 64 -59 166q0 106 63 177q57 64 141 64q101 0 154 -82q41 -64 41 -158v-22zM122 258h256q-3 73 -35.5 114t-89.5 41q-54 0 -90.5 -43t-40.5 -112zM134 602q0 18 13 30.5
t31 12.5t31 -13t13 -30q0 -19 -13 -31.5t-31 -12.5q-19 0 -31.5 12.5t-12.5 31.5zM285 602q0 17 13 30t31 13t31 -13t13 -30q0 -19 -13 -31.5t-31 -12.5q-19 0 -31.5 12.5t-12.5 31.5z" />
    <glyph glyph-name="igrave" unicode="&#xec;" horiz-adv-x="281" 
d="M169 454v-454h-67v454h67zM112 543l-85 112h73l54 -112h-42z" />
    <glyph glyph-name="iacute" unicode="&#xed;" horiz-adv-x="273" 
d="M243 655l-85 -112h-42l54 112h73zM171 454v-454h-67v454h67z" />
    <glyph glyph-name="icircumflex" unicode="&#xee;" horiz-adv-x="281" 
d="M175 454v-454h-67v454h67zM119 655h47l78 -112h-55l-46 68l-2 -1l-47 -67h-54z" />
    <glyph glyph-name="idieresis" unicode="&#xef;" horiz-adv-x="281" 
d="M168 454v-454h-67v454h67zM16 602q0 18 13 30.5t31 12.5t31 -13t13 -30q0 -19 -13 -31.5t-31 -12.5q-19 0 -31.5 12.5t-12.5 31.5zM167 602q0 17 13 30t31 13t31 -13t13 -30q0 -19 -13 -31.5t-31 -12.5q-19 0 -31.5 12.5t-12.5 31.5z" />
    <glyph glyph-name="eth" unicode="&#xf0;" horiz-adv-x="503" 
d="M153 621l36 24q68 -12 127 -56l105 55l10 -10q15 -14 24 -22l-102 -53q101 -102 101 -274q0 -131 -54 -212q-57 -85 -160 -85q-96 0 -151 79q-41 59 -41 129q0 120 72 176q51 39 123 39q81 0 133 -55q-14 112 -77 176l-120 -61l-33 34l118 60q-40 33 -111 56zM377 296
q-45 59 -123 59q-61 0 -95.5 -40t-34.5 -112q0 -74 29.5 -116t82.5 -42q68 0 105 57t37 160q0 16 -1 34z" />
    <glyph glyph-name="ntilde" unicode="&#xf1;" horiz-adv-x="545" 
d="M460 0h-66v266q0 142 -124 142q-36 0 -71 -17t-54 -43v-348h-67v454h56l6 -48h3q59 60 148 60q169 0 169 -195v-271zM163 562l-27 17q24 76 83 76q28 0 68 -25q32 -19 46 -19q27 0 50 45l27 -18q-25 -76 -79 -76q-21 0 -58 20q-2 1 -7 4l-2 1q-30 18 -45 18
q-17 0 -33.5 -13t-22.5 -30z" />
    <glyph glyph-name="ograve" unicode="&#xf2;" horiz-adv-x="538" 
d="M485 226q0 -108 -68 -177q-61 -61 -150 -61q-103 0 -166 78q-53 66 -53 160q0 110 66 178q60 62 153 62q105 0 167 -79q51 -66 51 -161zM120 226q0 -87 45 -138q40 -45 101 -45q66 0 106.5 50.5t40.5 132.5q0 86 -44 138q-40 48 -102 48q-66 0 -106.5 -51.5t-40.5 -134.5
zM250 543l-85 112h73l54 -112h-42z" />
    <glyph glyph-name="oacute" unicode="&#xf3;" horiz-adv-x="538" 
d="M485 226q0 -108 -68 -177q-61 -61 -150 -61q-103 0 -166 78q-53 66 -53 160q0 110 66 178q60 62 153 62q105 0 167 -79q51 -66 51 -161zM120 226q0 -87 45 -138q40 -45 101 -45q66 0 106.5 50.5t40.5 132.5q0 86 -44 138q-40 48 -102 48q-66 0 -106.5 -51.5t-40.5 -134.5
zM367 655l-85 -112h-42l54 112h73z" />
    <glyph glyph-name="ocircumflex" unicode="&#xf4;" horiz-adv-x="538" 
d="M485 226q0 -108 -68 -177q-61 -61 -150 -61q-103 0 -166 78q-53 66 -53 160q0 110 66 178q60 62 153 62q105 0 167 -79q51 -66 51 -161zM120 226q0 -87 45 -138q40 -45 101 -45q66 0 106.5 50.5t40.5 132.5q0 86 -44 138q-40 48 -102 48q-66 0 -106.5 -51.5t-40.5 -134.5
zM245 655h48l77 -112h-55l-45 68l-2 -1l-47 -67h-54z" />
    <glyph glyph-name="otilde" unicode="&#xf5;" horiz-adv-x="538" 
d="M485 226q0 -108 -68 -177q-61 -61 -150 -61q-103 0 -166 78q-53 66 -53 160q0 110 66 178q60 62 153 62q105 0 167 -79q51 -66 51 -161zM120 226q0 -87 45 -138q40 -45 101 -45q66 0 106.5 50.5t40.5 132.5q0 86 -44 138q-40 48 -102 48q-66 0 -106.5 -51.5t-40.5 -134.5
zM154 562l-27 17q25 76 83 76q28 0 69 -25q32 -19 46 -19q27 0 49 45l28 -18q-26 -76 -79 -76q-22 0 -58 20q-3 1 -9 5q-30 18 -46 18t-33 -13t-23 -30z" />
    <glyph glyph-name="odieresis" unicode="&#xf6;" horiz-adv-x="538" 
d="M485 226q0 -108 -68 -177q-61 -61 -150 -61q-103 0 -166 78q-53 66 -53 160q0 110 66 178q60 62 153 62q105 0 167 -79q51 -66 51 -161zM120 226q0 -87 45 -138q40 -45 101 -45q66 0 106.5 50.5t40.5 132.5q0 86 -44 138q-40 48 -102 48q-66 0 -106.5 -51.5t-40.5 -134.5
zM150 602q0 18 13 30.5t31 12.5t31 -13t13 -30q0 -19 -13 -31.5t-31 -12.5q-19 0 -31.5 12.5t-12.5 31.5zM301 602q0 17 13 30t31 13t31 -13t13 -30q0 -19 -13 -31.5t-31 -12.5q-19 0 -31.5 12.5t-12.5 31.5z" />
    <glyph glyph-name="divide" unicode="&#xf7;" horiz-adv-x="390" 
d="M195 286q-40 0 -40 41t40 41t40 -41t-40 -41zM45 181v62h300v-62h-300zM195 48q-40 0 -40 41q0 40 40 40t40 -40q0 -41 -40 -41z" />
    <glyph glyph-name="oslash" unicode="&#xf8;" horiz-adv-x="533" 
d="M189 2l-14 -32h-58l25 57q-94 67 -94 199q0 110 66 178q60 62 153 62q34 0 69 -11l16 35h59l-27 -58q101 -66 101 -206q0 -108 -68 -177q-61 -61 -150 -61q-38 0 -78 14zM358 375l-145 -321q24 -11 53 -11q66 0 106.5 50.5t40.5 132.5q0 97 -55 149zM312 404q-22 8 -45 8
q-66 0 -106.5 -51.5t-40.5 -134.5q0 -90 49 -140z" />
    <glyph glyph-name="ugrave" unicode="&#xf9;" horiz-adv-x="534" 
d="M444 454v-454h-52l-6 52l-3 -1q-61 -63 -148 -63q-73 0 -115 51.5t-42 142.5v272h67v-260q0 -147 110 -147q34 0 68.5 17t54.5 44v346h66zM240 543l-85 112h73l54 -112h-42z" />
    <glyph glyph-name="uacute" unicode="&#xfa;" horiz-adv-x="534" 
d="M444 454v-454h-52l-6 52l-3 -1q-61 -63 -148 -63q-73 0 -115 51.5t-42 142.5v272h67v-260q0 -147 110 -147q34 0 68.5 17t54.5 44v346h66zM357 655l-85 -112h-42l54 112h73z" />
    <glyph glyph-name="ucircumflex" unicode="&#xfb;" horiz-adv-x="534" 
d="M444 454v-454h-52l-6 52l-3 -1q-61 -63 -148 -63q-73 0 -115 51.5t-42 142.5v272h67v-260q0 -147 110 -147q34 0 68.5 17t54.5 44v346h66zM238 655h48l77 -112h-55l-45 68l-2 -1l-47 -67h-54z" />
    <glyph glyph-name="udieresis" unicode="&#xfc;" horiz-adv-x="534" 
d="M444 454v-454h-52l-6 52l-3 -1q-61 -63 -148 -63q-73 0 -115 51.5t-42 142.5v272h67v-260q0 -147 110 -147q34 0 68.5 17t54.5 44v346h66zM143 602q0 18 12.5 30.5t31.5 12.5q17 0 30 -13t13 -30q0 -19 -12.5 -31.5t-30.5 -12.5q-19 0 -31.5 12.5t-12.5 31.5zM294 602
q0 17 12.5 30t30.5 13t31 -13t13 -30q0 -19 -12.5 -31.5t-31.5 -12.5q-18 0 -30.5 12.5t-12.5 31.5z" />
    <glyph glyph-name="yacute" unicode="&#xfd;" horiz-adv-x="457" 
d="M442 454l-198 -523q-45 -122 -124 -122q-50 0 -100 36l22 36q34 -18 60 -18q50 0 87 93l18 44h-17l-175 454h71l144 -385l140 385h72zM326 650l-85 -112h-42l54 112h73z" />
    <glyph glyph-name="thorn" unicode="&#xfe;" horiz-adv-x="541" 
d="M78 609l68 35v-247q53 69 143 69q99 0 155 -74q48 -62 48 -156q0 -124 -70 -192q-56 -56 -138 -56q-84 0 -138 56v-229h-68v794zM146 318v-191q9 -35 45 -59.5t76 -24.5q68 0 110 50.5t42 132.5q0 93 -45 143q-39 42 -100 42q-41 0 -81 -29t-47 -64z" />
    <glyph glyph-name="ydieresis" unicode="&#xff;" horiz-adv-x="457" 
d="M442 454l-198 -523q-45 -122 -124 -122q-50 0 -100 36l22 36q34 -18 60 -18q50 0 87 93l18 44h-17l-175 454h71l144 -385l140 385h72zM111 602q0 18 12.5 30.5t31.5 12.5q17 0 30 -13t13 -30q0 -19 -12.5 -31.5t-30.5 -12.5q-19 0 -31.5 12.5t-12.5 31.5zM262 602
q0 17 12.5 30t30.5 13t31 -13t13 -30q0 -19 -12.5 -31.5t-31.5 -12.5q-18 0 -30.5 12.5t-12.5 31.5z" />
    <glyph glyph-name="dotlessi" unicode="&#x131;" horiz-adv-x="281" 
d="M165 454v-454h-67v454h67z" />
    <glyph glyph-name="Lslash" unicode="&#x141;" horiz-adv-x="460" 
d="M329 373l-163 -69v-240h250v-64h-323v273q-7 -3 -26 -10q-27 -11 -42 -17v55l68 27v305h73v-274l19 8q54 23 80 33l13 6q33 14 51 21v-54z" />
    <glyph glyph-name="lslash" unicode="&#x142;" horiz-adv-x="263" 
d="M92 0v306q-29 -13 -53 -26q-2 -1 -5 -2q-6 -3 -9 -4v53l67 33v248q34 17 66 35l1 1v-250l44 22l9 4l26 13v-52l-79 -40v-341h-67z" />
    <glyph glyph-name="OE" unicode="&#x152;" horiz-adv-x="853" 
d="M417 633h370v-64h-299v-208h251v-64h-251v-233h312v-64h-384q-48 -12 -95 -12q-135 0 -211 111q-60 89 -60 214q0 148 77 242q74 90 194 90q50 0 96 -12zM415 70v498q-45 13 -94 13q-99 0 -151 -87q-41 -70 -41 -181q0 -126 56 -196q51 -64 136 -64q59 0 94 17z" />
    <glyph glyph-name="oe" unicode="&#x153;" horiz-adv-x="863" 
d="M812 204h-324q4 -73 51 -117t120 -44q63 0 122 37l22 -40q-65 -52 -159 -52q-134 0 -195 103q-62 -103 -182 -103q-103 0 -166 78q-53 66 -53 160q0 110 66 178q60 62 153 62q122 0 182 -104q58 104 169 104q101 0 153 -82q41 -64 41 -158v-22zM413 226v1q0 85 -44 137
q-40 48 -102 48q-66 0 -106.5 -51.5t-40.5 -134.5q0 -87 45 -138q40 -45 101 -45q66 0 106.5 50.5t40.5 132.5zM487 258h256q-2 73 -34.5 114t-89.5 41q-55 0 -91 -43t-41 -112z" />
    <glyph glyph-name="Scaron" unicode="&#x160;" horiz-adv-x="517" 
d="M58 52l32 45q73 -42 155 -42q63 0 99 29.5t36 83.5q0 92 -121 134q-103 35 -149 78t-46 105q0 74 58 119q53 41 139 41q94 0 171 -52l-33 -45q-62 33 -133 33q-58 0 -92 -25t-34 -68q0 -67 104 -106q118 -45 165.5 -92.5t47.5 -123.5q0 -87 -67 -137q-55 -41 -134 -41
q-99 0 -198 64zM234 721l-78 112h54l47 -68h2l45 68h55l-77 -112h-48z" />
    <glyph glyph-name="scaron" unicode="&#x161;" horiz-adv-x="415" 
d="M316 386q-50 26 -109 26q-40 0 -62.5 -17.5t-22.5 -47.5q0 -32 20.5 -49.5t78.5 -34.5q82 -25 114 -56t32 -87q0 -59 -44.5 -95.5t-114.5 -36.5q-92 0 -160 50q3 5 10 17q7 13 12 20q58 -32 125 -32q105 0 105 79q0 32 -22.5 50t-83.5 34q-142 40 -142 139q0 53 41.5 87
t106.5 34q77 0 138 -43zM217 543h-47l-79 112h52l49 -71h2l48 71h53z" />
    <glyph glyph-name="Ydieresis" unicode="&#x178;" horiz-adv-x="530" 
d="M15 633h78l172 -320l172 320h78l-213 -385v-248h-73v248zM146 770q0 18 12.5 30.5t31.5 12.5q17 0 30 -13t13 -30q0 -19 -12.5 -31.5t-30.5 -12.5q-19 0 -31.5 12.5t-12.5 31.5zM297 770q0 17 12.5 30t30.5 13t31 -13t13 -30q0 -19 -12.5 -31.5t-31.5 -12.5
q-18 0 -30.5 12.5t-12.5 31.5z" />
    <glyph glyph-name="Zcaron" unicode="&#x17d;" horiz-adv-x="465" 
d="M433 566l-322 -503h329v-63h-415v60l329 510h-320v63h399v-67zM251 716h-48l-78 112h52l49 -71h2l48 71h52z" />
    <glyph glyph-name="zcaron" unicode="&#x17e;" horiz-adv-x="410" 
d="M385 0h-360v58l275 341h-258v55h337v-58l-274 -341h280v-55zM227 543h-48l-78 112h52l49 -71h2l48 71h52z" />
    <glyph glyph-name="florin" unicode="&#x192;" horiz-adv-x="390" 
d="M373 609l-24 -37q-33 17 -65 17q-59 0 -59 -74v-61h114v-54h-114v-400q0 -140 -101 -140q-49 0 -93 35l24 37q32 -18 55 -18q49 0 49 87v399h-65v54h65v64q0 59 29 92t82 33q54 0 103 -34z" />
    <glyph glyph-name="circumflex" unicode="&#x2c6;" horiz-adv-x="211" 
d="M83 655h47l78 -112h-55l-46 68l-2 -1l-47 -67h-54z" />
    <glyph glyph-name="caron" unicode="&#x2c7;" horiz-adv-x="211" 
d="M130 543h-47l-79 112h52l49 -71h2l48 71h53z" />
    <glyph glyph-name="breve" unicode="&#x2d8;" horiz-adv-x="242" 
d="M222 645v-1q0 -49 -27.5 -77t-73.5 -28q-48 0 -74.5 28t-26.5 78h44q3 -68 57 -68q57 0 58 68h43z" />
    <glyph glyph-name="dotaccent" unicode="&#x2d9;" horiz-adv-x="102" 
d="M5 599q0 19 13.5 32.5t32.5 13.5t32.5 -13.5t13.5 -32.5t-13.5 -32.5t-32.5 -13.5t-32.5 13.5t-13.5 32.5z" />
    <glyph glyph-name="ring" unicode="&#x2da;" horiz-adv-x="166" 
d="M20 589q0 26 18.5 44.5t44.5 18.5t44.5 -18.5t18.5 -44.5t-18.5 -44.5t-44.5 -18.5t-44.5 18.5t-18.5 44.5zM50 589q0 -32 33 -32q13 0 23 9.5t10 22.5t-10 23t-23 10q-33 0 -33 -33z" />
    <glyph glyph-name="ogonek" unicode="&#x2db;" horiz-adv-x="188" 
d="M62 4h47q-41 -52 -41 -86q0 -35 36 -35q22 0 49 11l12 -35q-32 -18 -73 -18q-33 0 -53.5 20t-20.5 53q0 38 44 90z" />
    <glyph glyph-name="tilde" unicode="&#x2dc;" horiz-adv-x="297" 
d="M38 562l-27 17q25 76 83 76q28 0 69 -25q32 -19 46 -19q27 0 49 45l28 -18q-26 -76 -79 -76q-22 0 -58 20q-3 1 -9 5q-30 18 -46 18t-33 -13t-23 -30z" />
    <glyph glyph-name="hungarumlaut" unicode="&#x2dd;" horiz-adv-x="302" 
d="M152 661l-84 -116h-43l54 116h73zM277 661l-89 -116h-43l59 116h73z" />
    <glyph glyph-name="pi" unicode="&#x3c0;" horiz-adv-x="560" 
d="M385 0v397h-217v-397h-67v398h-59v56h476v-57h-65v-397h-68z" />
    <glyph glyph-name="uni060C" unicode="&#x60c;" horiz-adv-x="219" 
d="M118 91q45 0 45 -45v-1v-1q0 -22 -13.5 -35.5t-34.5 -13.5q-50 0 -50 63v105l31 12v-84h22z" />
    <glyph glyph-name="uni061B" unicode="&#x61b;" horiz-adv-x="228" 
d="M136 338q45 0 45 -45v-1v-1q0 -22 -13.5 -35.5t-34.5 -13.5q-50 0 -50 63v105l31 12v-84h22zM174 40v-2q0 -43 -41 -43q-43 0 -43 44q2 41 43 41t41 -40z" />
    <glyph glyph-name="uni061F" unicode="&#x61f;" horiz-adv-x="429" 
d="M218 123q18 37 18 68q0 33 -17.5 60t-69.5 74q-27 24 -40 37q-61 62 -61 140q0 68 45 112t116 44q78 0 140 -54v-68q-72 61 -136 61q-44 0 -71.5 -26.5t-27.5 -68.5q0 -51 43 -94q9 -9 31 -29q63 -58 86.5 -97.5t23.5 -86.5q0 -35 -17 -72h-63zM290 36v-2q0 -43 -41 -43
q-43 0 -43 44q2 41 43 41t41 -40z" />
    <glyph glyph-name="uni0621" unicode="&#x621;" horiz-adv-x="513" 
d="M35 -54v64q37 28 105 39q-51 70 -51 154q0 81 39.5 134.5t107.5 65.5q15 3 30 3q87 0 143 -71v-67q-62 77 -140 77q-12 0 -23 -2q-90 -18 -90 -136q0 -92 63 -148q13 1 36 1q131 2 208 57v-62q-84 -55 -219 -55q-132 0 -209 -54z" />
    <glyph glyph-name="uni0622" unicode="&#x622;" horiz-adv-x="247" 
d="M235 749q-30 -48 -66 -48q-23 0 -54 21q-22 15 -34 15q-18 0 -41 -32l-26 19q31 49 66 49q20 0 48 -19q24 -17 40 -17t41 31zM90 0v610l67 35v-645h-67z" />
    <glyph glyph-name="uni0623" unicode="&#x623;" horiz-adv-x="247" 
d="M35 659l19 35h25q-10 17 -10 36q0 28 21.5 49t49.5 21q22 0 43 -14v-37q-19 14 -38 14q-16 0 -27.5 -10t-11.5 -24q0 -18 15 -35h87l-19 -35h-154zM90 0v570l67 35v-605h-67z" />
    <glyph glyph-name="uni0624" unicode="&#x624;" horiz-adv-x="493" 
d="M311 597l-19 -36h-155l19 36h26q-10 18 -10 36q0 28 21 48.5t50 20.5q22 0 43 -13v-38q-20 15 -39 15q-16 0 -27 -10.5t-11 -24.5q0 -17 14 -34h88zM346 37q-42 -24 -108 -24q-87 0 -136 67q-42 57 -42 144q0 105 56 164q49 52 130 52q83 0 128 -52q39 -45 39 -120v-220
q0 -93 -39 -153.5t-111 -77.5q-24 -7 -52 -7q-58 0 -113 28v59q52 -28 103 -28q41 0 72 18q70 35 73 150zM346 262q0 117 -100 117q-56 0 -88.5 -41t-32.5 -113q0 -70 31 -111.5t84 -41.5q79 0 106 44v146z" />
    <glyph glyph-name="uni0625" unicode="&#x625;" horiz-adv-x="247" 
d="M90 0v610l67 35v-645h-67zM33 -236l19 36h26q-10 18 -10 36q0 28 21 48.5t50 20.5q22 0 43 -13v-38q-20 15 -39 15q-16 0 -27 -10.5t-11 -24.5q0 -17 14 -34h88l-19 -36h-155z" />
    <glyph glyph-name="uni0626" unicode="&#x626;" horiz-adv-x="713" 
d="M58 340l19 36h25q-9 17 -9 35q0 29 21 49.5t50 20.5q22 0 43 -13v-38q-20 14 -40 14q-17 0 -28 -10q-10 -10 -10 -24q0 -18 15 -34h87l-19 -36h-154zM612 300q-63 72 -140 72q-43 0 -68 -25.5t-25 -69.5v-2q1 -46 28 -72t105 -53q82 -29 111.5 -58t29.5 -82
q0 -89 -85 -146q-80 -54 -208 -54q-154 0 -232 90q-58 67 -58 165q0 86 44 148l65 13q-48 -73 -48 -156q0 -91 63 -145q61 -53 166 -53q115 0 178 48q49 38 49 90q0 31 -22 49t-87 41q-84 30 -117 59q-47 43 -47 117q0 77 55 121q43 34 98 34q88 0 145 -66v-65z" />
    <glyph glyph-name="uni0627" unicode="&#x627;" horiz-adv-x="247" 
d="M90 0v610l67 35v-645h-67z" />
    <glyph glyph-name="uni0628" unicode="&#x628;" horiz-adv-x="869" 
d="M252 0q-74 0 -118 46.5t-44 125.5v131l67 35v-158q0 -118 110 -118h335q110 0 110 118v213l67 35v-256q0 -85 -52 -132q-45 -40 -118 -40h-357zM415 -187q-41 0 -41 42q0 40 41 40q39 0 39 -40q0 -42 -39 -42z" />
    <glyph glyph-name="uni0629" unicode="&#x629;" horiz-adv-x="512" 
d="M194 565q-40 0 -40 42q0 40 40 40t40 -40q0 -42 -40 -42zM308 565q-40 0 -40 42q0 40 40 40t40 -40q0 -42 -40 -42zM253 0q-89 0 -139 59q-42 51 -42 132q0 185 186 249q186 -64 186 -249q0 -93 -55 -145q-48 -46 -126 -46h-10zM250 62h16q52 0 82 34.5t30 94.5
q0 133 -120 188q-120 -55 -120 -188q0 -59 30 -94t82 -35z" />
    <glyph glyph-name="uni062A" unicode="&#x62a;" horiz-adv-x="869" 
d="M355 465q-40 0 -40 42q0 40 40 40t40 -40q0 -42 -40 -42zM470 465q-41 0 -41 42q0 40 41 40q39 0 39 -40q0 -42 -39 -42zM252 0q-74 0 -118 46.5t-44 125.5v131l67 35v-158q0 -118 110 -118h335q110 0 110 118v213l67 35v-256q0 -85 -52 -132q-45 -40 -118 -40h-357z" />
    <glyph glyph-name="uni062B" unicode="&#x62b;" horiz-adv-x="869" 
d="M417 569q-39 0 -39 41q0 39 39 39q38 0 38 -39q0 -41 -38 -41zM360 465q-40 0 -40 42q0 40 40 40t40 -40q0 -42 -40 -42zM475 465q-41 0 -41 42q0 40 41 40q39 0 39 -40q0 -42 -39 -42zM252 0q-74 0 -118 46.5t-44 125.5v131l67 35v-158q0 -118 110 -118h335
q110 0 110 118v213l67 35v-256q0 -85 -52 -132q-45 -40 -118 -40h-357z" />
    <glyph glyph-name="uni062C" unicode="&#x62c;" horiz-adv-x="622" 
d="M497 -323q-82 -52 -186 -52q-112 0 -180 75q-61 67 -61 168q0 108 66 177q30 31 68.5 47.5t119.5 31.5q83 17 121 34t65 51q-87 171 -215 171q-87 0 -168 -87v66q82 81 171 81h2q157 0 272 -212v-41q-34 -49 -81 -73t-147 -45q-122 -24 -163 -65q-49 -49 -49 -138
q0 -86 57 -136q49 -43 123 -43h2q114 0 183 51v-61zM314 -171q-38 0 -38 39q0 38 38 38q37 0 37 -38q0 -39 -37 -39z" />
    <glyph glyph-name="uni062D" unicode="&#x62d;" horiz-adv-x="622" 
d="M497 -323q-82 -52 -186 -52q-112 0 -180 75q-61 67 -61 168q0 108 66 177q30 31 69 47.5t119 31.5q82 16 120 33.5t66 51.5q-87 171 -215 171q-87 0 -168 -87v66q82 81 171 81h2q157 0 272 -212v-41q-35 -49 -82.5 -73.5t-145.5 -44.5q-122 -24 -163 -65
q-49 -49 -49 -138q0 -86 57 -136q48 -43 123 -43h2q114 0 183 51v-61z" />
    <glyph glyph-name="uni062E" unicode="&#x62e;" horiz-adv-x="622" 
d="M326 560q-41 0 -41 42q0 40 41 40q39 0 39 -40q0 -42 -39 -42zM497 -323q-82 -52 -186 -52q-112 0 -180 75q-61 67 -61 168q0 108 66 177q30 31 69 47.5t119 31.5q82 16 120 33.5t66 51.5q-87 171 -215 171q-87 0 -168 -87v66q82 81 171 81h2q157 0 272 -212v-41
q-35 -49 -82.5 -73.5t-145.5 -44.5q-122 -24 -163 -65q-49 -49 -49 -138q0 -86 57 -136q48 -43 123 -43h2q114 0 183 51v-61z" />
    <glyph glyph-name="uni062F" unicode="&#x62f;" horiz-adv-x="449" 
d="M10 0l32 62h188q46 0 64.5 23t18.5 80q0 146 -128 219l32 55q163 -95 163 -275q0 -164 -139 -164h-231z" />
    <glyph glyph-name="uni0630" unicode="&#x630;" horiz-adv-x="449" 
d="M221 560q-41 0 -41 42q0 40 41 40q39 0 39 -40q0 -42 -39 -42zM10 0l32 62h188q46 0 64.5 23t18.5 80q0 146 -128 219l32 55q163 -95 163 -275q0 -164 -139 -164h-231z" />
    <glyph glyph-name="uni0631" unicode="&#x631;" horiz-adv-x="311" 
d="M221 48q0 -182 -134 -228q-32 -11 -68 -11q-58 0 -112 28v59q51 -28 104 -28q42 0 74 19q70 42 70 157v349l66 35v-380z" />
    <glyph glyph-name="uni0632" unicode="&#x632;" horiz-adv-x="311" 
d="M182 560q-41 0 -41 42q0 40 41 40q39 0 39 -40q0 -42 -39 -42zM221 48q0 -182 -134 -228q-32 -11 -68 -11q-58 0 -112 28v59q51 -28 104 -28q42 0 74 19q70 42 70 157v349l66 35v-380z" />
    <glyph glyph-name="uni0633" unicode="&#x633;" horiz-adv-x="1318" 
d="M1161 393l67 35v-254q0 -83 -50 -131q-45 -43 -119 -43h-53q-91 0 -136 62q-45 -62 -136 -62h-53q-59 0 -103 29q-7 -105 -84 -165q-68 -54 -172 -54q-127 0 -197 90q-55 69 -55 165q0 86 44 148l65 13q-48 -73 -48 -156q0 -88 57 -145q53 -53 134 -53q95 0 147 56
q43 46 43 121v271l67 35v-179q0 -114 111 -114h36q111 0 111 114v180l66 36v-216q0 -114 111 -114h37q110 0 110 114v217z" />
    <glyph glyph-name="uni0634" unicode="&#x634;" horiz-adv-x="1318" 
d="M868 631q-37 0 -37 38q0 36 37 36q36 0 36 -36q0 -38 -36 -38zM811 527q-40 0 -40 41t40 41t40 -41t-40 -41zM885 568q0 41 41 41q39 0 39 -41t-39 -41q-41 0 -41 41zM1161 393l67 35v-254q0 -83 -50 -131q-45 -43 -119 -43h-53q-91 0 -136 62q-45 -62 -136 -62h-53
q-59 0 -103 29q-7 -105 -84 -165q-68 -54 -172 -54q-127 0 -197 90q-55 69 -55 165q0 86 44 148l65 13q-48 -73 -48 -156q0 -88 57 -145q53 -53 134 -53q95 0 147 56q43 46 43 121v271l67 35v-179q0 -114 111 -114h36q111 0 111 114v180l66 36v-216q0 -114 111 -114h37
q110 0 110 114v217z" />
    <glyph glyph-name="uni0635" unicode="&#x635;" horiz-adv-x="1329" 
d="M652 66q36 153 129 258q103 116 242 116q112 0 178 -77q56 -66 56 -163v-28q0 -85 -52 -132q-44 -40 -117 -40h-407q-59 0 -103 29q-7 -105 -84 -165q-68 -54 -172 -54q-127 0 -197 90q-55 69 -55 165q0 86 44 148l65 13q-48 -73 -48 -156q0 -88 57 -145q53 -53 134 -53
q95 0 147 56q43 46 43 121v271l67 35v-179q0 -94 73 -110zM1190 180v20q0 84 -53 135q-45 44 -113 44q-118 0 -208 -110q-69 -83 -103 -207h370q107 0 107 118z" />
    <glyph glyph-name="uni0636" unicode="&#x636;" horiz-adv-x="1329" 
d="M1018 560q-41 0 -41 42q0 40 41 40q39 0 39 -40q0 -42 -39 -42zM652 66q36 153 129 258q103 116 242 116q112 0 178 -77q56 -66 56 -163v-28q0 -85 -52 -132q-44 -40 -117 -40h-407q-59 0 -103 29q-7 -105 -84 -165q-68 -54 -172 -54q-127 0 -197 90q-55 69 -55 165
q0 86 44 148l65 13q-48 -73 -48 -156q0 -88 57 -145q53 -53 134 -53q95 0 147 56q43 46 43 121v271l67 35v-179q0 -94 73 -110zM1190 180v20q0 84 -53 135q-45 44 -113 44q-118 0 -208 -110q-69 -83 -103 -207h370q107 0 107 118z" />
    <glyph glyph-name="uni0637" unicode="&#x637;" horiz-adv-x="863" 
d="M247 225q117 215 310 215q112 0 178 -77q56 -66 56 -163v-35q0 -165 -144 -165h-627l33 62h132v548l62 35v-420zM724 200q0 84 -53 135q-45 44 -113 44q-117 0 -208 -113q-69 -85 -102 -204h392q48 0 66 22.5t18 82.5v33z" />
    <glyph glyph-name="uni0638" unicode="&#x638;" horiz-adv-x="863" 
d="M247 225q117 215 310 215q112 0 178 -77q56 -66 56 -163v-35q0 -165 -144 -165h-627l33 62h132v548l62 35v-420zM724 200q0 84 -53 135q-45 44 -113 44q-117 0 -208 -113q-69 -85 -102 -204h392q48 0 66 22.5t18 82.5v33zM552 560q-41 0 -41 42q0 40 41 40q39 0 39 -40
q0 -42 -39 -42z" />
    <glyph glyph-name="uni0639" unicode="&#x639;" horiz-adv-x="553" 
d="M503 -323q-82 -52 -185 -52q-120 0 -190 75q-58 62 -58 147q0 62 32 112t87 75q-102 58 -102 198q0 101 69 160q54 47 129 48q102 0 161 -81v-66q-61 86 -155 86q-62 0 -100 -41.5t-38 -107.5q0 -77 46 -123q44 -45 118 -45h177v-62h-175q-97 0 -147 -53q-38 -40 -38 -99
q0 -72 53 -118q50 -43 131 -43h2q114 0 183 51v-61z" />
    <glyph glyph-name="uni063A" unicode="&#x63a;" horiz-adv-x="553" 
d="M299 560q-41 0 -41 42q0 40 41 40q39 0 39 -40q0 -42 -39 -42zM503 -323q-82 -52 -185 -52q-120 0 -190 75q-58 62 -58 147q0 62 32 112t87 75q-102 58 -102 198q0 101 69 160q54 47 129 48q102 0 161 -81v-66q-61 86 -155 86q-62 0 -100 -41.5t-38 -107.5q0 -77 46 -123
q44 -45 118 -45h177v-62h-175q-97 0 -147 -53q-38 -40 -38 -99q0 -72 53 -118q50 -43 131 -43h2q114 0 183 51v-61z" />
    <glyph glyph-name="uni0640" unicode="&#x640;" horiz-adv-x="116" 
d="M-10 0v62h136v-62h-136z" />
    <glyph glyph-name="uni0641" unicode="&#x641;" horiz-adv-x="935" 
d="M695 557q-41 0 -41 42q0 40 41 40q39 0 39 -40q0 -42 -39 -42zM257 0q-81 0 -127 54q-40 48 -40 123v131l67 35v-158q0 -123 114 -123h286q-55 53 -55 158q0 108 56 167q49 53 130 53q83 0 128 -52q39 -45 39 -120v-96q0 -83 -51 -130q-45 -42 -119 -42h-428zM788 262
q0 117 -100 117q-57 0 -88.5 -42t-31.5 -116q0 -72 31 -115.5t82 -43.5q107 0 107 116v84z" />
    <glyph glyph-name="uni0642" unicode="&#x642;" horiz-adv-x="734" 
d="M432 557q-41 0 -41 42q0 40 41 40q39 0 39 -40q0 -42 -39 -42zM546 557q-41 0 -41 42q0 40 41 40q39 0 39 -40q0 -42 -39 -42zM654 49q0 -116 -84 -180q-77 -59 -210 -59q-154 0 -232 90q-58 67 -58 165q0 86 44 148l65 13q-48 -73 -48 -156q0 -91 63 -145
q61 -53 166 -53q120 0 178 55q48 45 48 120q-37 -34 -107 -34q-86 0 -136 68q-42 57 -42 143q0 105 56 164q49 52 130 52q83 0 128 -52q39 -45 39 -120v-219zM587 262q0 117 -100 117q-56 0 -88 -41t-32 -113q0 -71 30.5 -112t83.5 -41q81 0 106 46v144z" />
    <glyph glyph-name="uni0643" unicode="&#x643;" horiz-adv-x="868" 
d="M711 610l67 35v-473q0 -85 -52 -132q-44 -40 -117 -40h-357q-74 0 -118 46.5t-44 125.5v131l67 35v-158q0 -118 110 -118h335q109 0 109 118v430zM430 477q41 0 65 -22t24 -59q0 -33 -19.5 -52.5t-51.5 -19.5h-124l19 35h102q38 0 38 38q0 46 -58 46q-30 0 -51 -12v34
l82 92h42l-69 -80h1z" />
    <glyph glyph-name="uni0644" unicode="&#x644;" horiz-adv-x="675" 
d="M585 54q0 -116 -79 -184q-71 -60 -181 -60q-130 0 -200 89q-55 69 -55 165q0 87 44 147l66 15q-49 -72 -49 -158q0 -88 57 -144q54 -53 137 -53q96 0 149 58q45 48 45 125v556l66 35v-591z" />
    <glyph glyph-name="uni0645" unicode="&#x645;" horiz-adv-x="572" 
d="M186 62q-47 60 -47 158q0 108 56 167q49 53 130 53q83 0 128 -52q39 -45 39 -120v-102q0 -76 -45 -120.5t-123 -45.5h-127q-110 0 -110 -114v-166l-67 -35v203q0 83 49 130q44 43 117 44zM425 172v90q0 117 -100 117q-57 0 -88.5 -42t-31.5 -116q0 -75 30 -117t83 -42
q107 0 107 110z" />
    <glyph glyph-name="uni0646" unicode="&#x646;" horiz-adv-x="669" 
d="M325 448q-41 0 -41 42q0 40 41 40q39 0 39 -40q0 -42 -39 -42zM579 49q0 -113 -78 -180q-69 -59 -179 -59q-127 0 -197 90q-55 69 -55 165q0 86 44 148l65 13q-48 -73 -48 -156q0 -88 57 -145q53 -53 134 -53q95 0 147 56q43 46 43 121v344l67 35v-379z" />
    <glyph glyph-name="uni0647" unicode="&#x647;" horiz-adv-x="512" 
d="M251 0q-89 0 -139 59q-42 51 -42 132q0 185 186 249q186 -64 186 -249q0 -93 -55 -145q-48 -46 -126 -46h-10zM248 62h16q52 0 82 34.5t30 94.5q0 133 -120 188q-120 -55 -120 -188q0 -59 30 -94t82 -35z" />
    <glyph glyph-name="uni0648" unicode="&#x648;" horiz-adv-x="493" 
d="M346 37q-42 -24 -108 -24q-87 0 -136 67q-42 57 -42 144q0 105 56 164q49 52 130 52q83 0 128 -52q39 -45 39 -120v-220q0 -93 -39 -153.5t-111 -77.5q-24 -7 -52 -7q-58 0 -113 28v59q52 -28 103 -28q41 0 72 18q70 35 73 150zM346 262q0 117 -100 117q-56 0 -88.5 -41
t-32.5 -113q0 -70 31 -111.5t84 -41.5q79 0 106 44v146z" />
    <glyph glyph-name="uni0649" unicode="&#x649;" horiz-adv-x="713" 
d="M612 300q-63 72 -140 72q-43 0 -68 -25.5t-25 -69.5v-2q1 -46 28 -72t105 -53q82 -29 111.5 -58t29.5 -82q0 -89 -85 -146q-80 -54 -208 -54q-154 0 -232 90q-58 67 -58 165q0 86 44 148l65 13q-48 -73 -48 -156q0 -91 63 -145q61 -53 166 -53q115 0 178 48q49 38 49 90
q0 31 -22 49t-87 41q-84 30 -117 59q-47 43 -47 117q0 77 55 121q43 34 98 34q88 0 145 -66v-65z" />
    <glyph glyph-name="uni064A" unicode="&#x64a;" horiz-adv-x="713" 
d="M612 300q-63 72 -140 72q-43 0 -68 -25.5t-25 -69.5v-2q1 -46 28 -72t105 -53q82 -29 111.5 -58t29.5 -82q0 -89 -85 -146q-80 -54 -208 -54q-154 0 -232 90q-58 67 -58 165q0 86 44 148l65 13q-48 -73 -48 -156q0 -91 63 -145q61 -53 166 -53q115 0 178 48q49 38 49 90
q0 31 -22 49t-87 41q-84 30 -117 59q-47 43 -47 117q0 77 55 121q43 34 98 34q88 0 145 -66v-65zM297 -355q-41 0 -41 41t41 41q39 0 39 -41t-39 -41zM411 -355q-40 0 -40 41t40 41t40 -41t-40 -41z" />
    <glyph glyph-name="uni064B" unicode="&#x64b;" 
d="M13 647l23 48l189 34l-23 -48zM0 565l23 48l188 35l-22 -48z" />
    <glyph glyph-name="uni064C" unicode="&#x64c;" 
d="M145 613q-30 18 -30 56q0 28 17.5 47.5t43.5 19.5q27 0 44.5 -19t17.5 -48q0 -43 -27.5 -70.5t-70.5 -27.5q-51 0 -80 40l-22 -36l-36 21l40 65h20q26 -49 71 -49q6 0 12 1zM181 629q19 18 19 40q0 32 -24 32t-24 -32q0 -28 29 -40z" />
    <glyph glyph-name="uni064D" unicode="&#x64d;" 
d="M13 -176l23 48l189 34l-23 -48zM0 -258l23 48l188 35l-22 -48z" />
    <glyph glyph-name="uni064E" unicode="&#x64e;" 
d="M0 565l23 48l188 35l-22 -48z" />
    <glyph glyph-name="uni064F" unicode="&#x64f;" 
d="M0 565l21 45l95 18q-19 19 -19 50q0 29 17.5 48t43.5 19q27 0 44.5 -19t17.5 -48q0 -33 -18.5 -56.5t-47.5 -28.5zM160 639q22 15 22 39q0 32 -24 32t-24 -32q0 -25 26 -39z" />
    <glyph glyph-name="uni0650" unicode="&#x650;" 
d="M0 -183l23 48l188 35l-22 -48z" />
    <glyph glyph-name="uni0651" unicode="&#x651;" 
d="M165 671l38 21v-69q0 -25 -17 -41.5t-43 -16.5t-41 15q-16 -15 -42 -15t-43 16.5t-17 41.5v25l38 21v-45q0 -22 23 -22q22 0 22 19v40l38 21v-61q0 -19 22 -19t22 22v47z" />
    <glyph glyph-name="uni0652" unicode="&#x652;" 
d="M64 704q28 -7 45.5 -29.5t18.5 -50.5q0 -62 -64 -62q-28 0 -45.5 16.5t-17.5 43.5q0 28 18 51t45 31zM64 663q-26 -6 -26 -37q0 -30 26 -30q27 0 27 30q0 31 -27 37z" />
    <glyph glyph-name="uni0653" unicode="&#x653;" 
d="M224 715q-30 -48 -66 -48q-23 0 -54 21q-22 15 -34 15q-18 0 -41 -32l-26 19q31 49 66 49q20 0 48 -19q24 -17 40 -17t41 31z" />
    <glyph glyph-name="uni0654" unicode="&#x654;" 
d="M-1 658l19 36h26q-10 18 -10 36q0 28 21 48.5t50 20.5q22 0 43 -13v-38q-20 15 -39 15q-16 0 -27 -10.5t-11 -24.5q0 -17 14 -34h88l-19 -36h-155z" />
    <glyph glyph-name="uni0655" unicode="&#x655;" 
d="M-1 -222l19 36h26q-10 18 -10 37q0 28 21 48.5t50 20.5q22 0 43 -14v-38q-20 15 -39 15q-16 0 -27 -10t-11 -25q0 -17 14 -34h88l-19 -36h-155z" />
    <glyph glyph-name="uni0660" unicode="&#x660;" horiz-adv-x="227" 
d="M114 89l-74 74l74 73l73 -73z" />
    <glyph glyph-name="uni0661" unicode="&#x661;" horiz-adv-x="207" 
d="M70 -15v580h67v-545z" />
    <glyph glyph-name="uni0662" unicode="&#x662;" horiz-adv-x="387" 
d="M65 -15v452q0 60 36 94t100 34h161v-62h-156q-74 0 -74 -68v-414z" />
    <glyph glyph-name="uni0663" unicode="&#x663;" horiz-adv-x="555" 
d="M461 565h64v-123q0 -53 -35 -85t-93 -32q-61 0 -98 35q-35 -35 -96 -35q-35 0 -66 13v-317l-67 -36v580h67v-123q0 -59 66 -59q64 0 64 59v93h64v-93q0 -59 66 -59q64 0 64 59v123z" />
    <glyph glyph-name="uni0664" unicode="&#x664;" horiz-adv-x="382" 
d="M225 0q-93 0 -145 57q-40 44 -40 105q0 88 82 134q-70 40 -70 120q0 64 49.5 106.5t123.5 42.5h84v-60h-81q-48 0 -79 -25.5t-31 -65.5q0 -41 31 -67t79 -26h56v-54h-56q-54 0 -88 -28.5t-34 -74.5t34 -75t88 -29h92l37 -60h-132z" />
    <glyph glyph-name="uni0665" unicode="&#x665;" horiz-adv-x="433" 
d="M223 491q93 -58 144 -156q42 -79 42 -158q0 -4 -1 -12q-5 -86 -55 -131q-48 -44 -130 -44q-84 0 -133.5 46t-53.5 128v14q0 88 51.5 174.5t135.5 138.5zM223 423q-56 -41 -91 -105t-35 -128v-3q2 -137 126 -137q119 0 124 131q1 5 1 8q0 66 -34.5 130t-90.5 104z" />
    <glyph glyph-name="uni0666" unicode="&#x666;" horiz-adv-x="387" 
d="M256 -15v450q0 68 -75 68h-156v62h161q64 0 100 -34t36 -94v-416z" />
    <glyph glyph-name="uni0667" unicode="&#x667;" horiz-adv-x="479" 
d="M188 0l-168 565h71l145 -493h4l148 493h71l-171 -565h-100z" />
    <glyph glyph-name="uni0668" unicode="&#x668;" horiz-adv-x="479" 
d="M20 0l168 565h100l171 -565h-71l-148 494h-4l-145 -494h-71z" />
    <glyph glyph-name="uni0669" unicode="&#x669;" horiz-adv-x="406" 
d="M274 -15v259q-40 -28 -86 -28q-36 0 -66 17q-87 42 -87 159q0 88 46 138q42 45 113 45q70 0 108.5 -41.5t38.5 -117.5v-395zM274 417q0 98 -81 98q-93 0 -93 -122q0 -51 25 -82t66 -32q48 0 83 32v106z" />
    <glyph glyph-name="uni066A" unicode="&#x66a;" horiz-adv-x="645" 
d="M437 565h59l-291 -565h-59zM100 489l71 70l69 -70l-69 -70zM405 98l71 70l69 -70l-69 -70z" />
    <glyph glyph-name="uni066D" unicode="&#x66d;" horiz-adv-x="342" 
d="M183 518l2 -4l2 -6q21 -49 21 -62q0 -27 -32 -27q-31 0 -31 27q0 17 26 74l-3 -4q-4 -5 -6 -8q-32 -42 -43 -48q-6 -4 -13 -4q-12 0 -22 11t-10 25q0 15 13 22q13 9 80 16q-62 7 -80 16q-13 7 -13 23q0 9 5 17q12 19 27 19q6 0 13 -5q16 -10 51 -59q-25 57 -25 73
q0 27 31 27q32 0 32 -27q0 -13 -20 -58l-1 -4q-3 -6 -4 -9q3 4 5 7q33 44 47 52q4 2 9 2q13 0 22.5 -10.5t9.5 -25.5q0 -16 -12 -23q-11 -6 -62 -13l-12 -1l-4 -1q65 -7 78 -15q12 -7 12 -22q0 -14 -9 -25t-20 -11q-7 0 -15 4q-14 8 -49 57z" />
    <glyph glyph-name="uni066E" unicode="&#x66e;" horiz-adv-x="869" 
d="M252 0q-74 0 -118 46.5t-44 125.5v131l67 35v-158q0 -118 110 -118h335q110 0 110 118v213l67 35v-256q0 -85 -52 -132q-45 -40 -118 -40h-357z" />
    <glyph glyph-name="uni0670" unicode="&#x670;" 
d="M0 687v126l38 21v-126z" />
    <glyph glyph-name="uni067E" unicode="&#x67e;" horiz-adv-x="869" 
d="M252 0q-74 0 -118 46.5t-44 125.5v131l67 35v-158q0 -118 110 -118h335q110 0 110 118v213l67 35v-256q0 -85 -52 -132q-45 -40 -118 -40h-357zM384 -187q-41 0 -41 40q0 42 41 42q39 0 39 -42q0 -40 -39 -40zM498 -187q-41 0 -41 40q0 42 41 42q39 0 39 -42
q0 -40 -39 -40zM440 -284q-37 0 -37 37t37 37q36 0 36 -37t-36 -37z" />
    <glyph glyph-name="uni06A4" unicode="&#x6a4;" horiz-adv-x="935" 
d="M686 662q-37 0 -37 38q0 37 37 37q36 0 36 -37q0 -38 -36 -38zM630 558q-41 0 -41 42q0 40 41 40q39 0 39 -40q0 -42 -39 -42zM744 558q-41 0 -41 42q0 40 41 40q39 0 39 -40q0 -42 -39 -42zM257 0q-81 0 -127 54q-40 48 -40 123v131l67 35v-158q0 -123 114 -123h286
q-55 53 -55 158q0 108 56 167q49 53 130 53q83 0 128 -52q39 -45 39 -120v-96q0 -83 -51 -130q-45 -42 -119 -42h-428zM788 262q0 117 -100 117q-57 0 -88.5 -42t-31.5 -116q0 -72 31 -115.5t82 -43.5q107 0 107 116v84z" />
    <glyph glyph-name="uni2002" unicode="&#x2002;" horiz-adv-x="521" 
 />
    <glyph glyph-name="uni2003" unicode="&#x2003;" horiz-adv-x="1042" 
 />
    <glyph glyph-name="uni2004" unicode="&#x2004;" horiz-adv-x="347" 
 />
    <glyph glyph-name="uni2005" unicode="&#x2005;" horiz-adv-x="260" 
 />
    <glyph glyph-name="uni2006" unicode="&#x2006;" horiz-adv-x="69" 
 />
    <glyph glyph-name="uni2007" unicode="&#x2007;" horiz-adv-x="583" 
 />
    <glyph glyph-name="uni2008" unicode="&#x2008;" horiz-adv-x="265" 
 />
    <glyph glyph-name="uni2009" unicode="&#x2009;" horiz-adv-x="130" 
 />
    <glyph glyph-name="uni200A" unicode="&#x200a;" horiz-adv-x="35" 
 />
    <glyph glyph-name="uni2011" unicode="&#x2011;" horiz-adv-x="264" 
d="M264 321v-124h-264v124h264z" />
    <glyph glyph-name="uni2012" unicode="&#x2012;" horiz-adv-x="583" 
d="M528 321v-124h-472v124h472z" />
    <glyph glyph-name="endash" unicode="&#x2013;" horiz-adv-x="381" 
d="M70 171v62h241v-62h-241z" />
    <glyph glyph-name="emdash" unicode="&#x2014;" horiz-adv-x="622" 
d="M70 171v62h482v-62h-482z" />
    <glyph glyph-name="afii00208" unicode="&#x2015;" horiz-adv-x="771" 
d="M771 321v-124h-771v124h771z" />
    <glyph glyph-name="quoteleft" unicode="&#x2018;" horiz-adv-x="229" 
d="M123 547q45 0 45 -45v-1v-1q0 -22 -13.5 -35.5t-34.5 -13.5q-50 0 -50 63v105l31 12v-84h22z" />
    <glyph glyph-name="quoteright" unicode="&#x2019;" horiz-adv-x="229" 
d="M106 543q-45 0 -45 45v2q0 22 13.5 35.5t34.5 13.5q50 0 50 -63v-105l-31 -12v84h-22z" />
    <glyph glyph-name="quotesinglbase" unicode="&#x201a;" horiz-adv-x="229" 
d="M106 -1q-45 0 -45 45v2q0 21 13.5 35t34.5 14q50 0 50 -63v-105l-31 -12v84h-22z" />
    <glyph glyph-name="quotedblleft" unicode="&#x201c;" horiz-adv-x="358" 
d="M123 547q45 0 45 -45v-1v-1q0 -22 -13.5 -35.5t-34.5 -13.5q-50 0 -50 63v105l31 12v-84h22zM252 547q45 0 45 -45v-1v-1q0 -22 -13.5 -35.5t-34.5 -13.5q-50 0 -50 63v105l31 12v-84h22z" />
    <glyph glyph-name="quotedblright" unicode="&#x201d;" horiz-adv-x="359" 
d="M106 543q-45 0 -45 45v2q0 22 13.5 35.5t34.5 13.5q50 0 50 -63v-105l-31 -12v84h-22zM236 543q-45 0 -45 45v2q0 22 13.5 35.5t34.5 13.5q50 0 50 -63v-105l-31 -12v84h-22z" />
    <glyph glyph-name="quotedblbase" unicode="&#x201e;" horiz-adv-x="359" 
d="M106 0q-45 0 -45 45v2q0 21 13.5 35t34.5 14q50 0 50 -63v-105l-31 -12v84h-22zM236 0q-45 0 -45 45v2q0 21 13.5 35t34.5 14q50 0 50 -63v-105l-31 -12v84h-22z" />
    <glyph glyph-name="dagger" unicode="&#x2020;" horiz-adv-x="412" 
d="M42 399v55h131v179h61v-179h136v-55h-136v-442h-61v442h-131z" />
    <glyph glyph-name="daggerdbl" unicode="&#x2021;" horiz-adv-x="412" 
d="M42 141v55h131v203h-131v55h131v185h61v-185h136v-55h-136v-203h136v-55h-136v-185h-61v185h-131z" />
    <glyph glyph-name="bullet" unicode="&#x2022;" horiz-adv-x="287" 
d="M144 150q-74 0 -74 75t74 75q73 0 73 -75t-73 -75z" />
    <glyph glyph-name="ellipsis" unicode="&#x2026;" horiz-adv-x="563" 
d="M174 40v-2q0 -43 -41 -43q-43 0 -43 44q2 41 43 41t41 -40zM341 40v-2q0 -43 -41 -43q-43 0 -43 44q2 41 43 41t41 -40zM507 40v-2q0 -43 -41 -43q-43 0 -43 44q2 41 43 41t41 -40z" />
    <glyph glyph-name="perthousand" unicode="&#x2030;" horiz-adv-x="1069" 
d="M689 151q0 -77 -41 -122q-36 -41 -92 -41q-60 0 -96.5 45t-36.5 118q0 75 36 119.5t97 44.5t97 -45t36 -119zM626 151q0 118 -70 118q-69 0 -69 -118q0 -54 18.5 -85.5t49.5 -31.5q33 0 52 31.5t19 85.5zM312 481q0 -76 -40 -122q-36 -40 -92 -40q-60 0 -97 44.5
t-37 117.5q0 75 36 119.5t98 44.5q60 0 96 -44.5t36 -119.5zM249 481q0 119 -69 119t-69 -119q0 -54 18 -85t50 -31t51 31t19 85zM1024 151q0 -77 -41 -122q-36 -41 -92 -41q-60 0 -96.5 45t-36.5 118q0 75 36 119.5t97 44.5t97 -45t36 -119zM961 151q0 118 -70 118
q-69 0 -69 -118q0 -54 18.5 -85.5t49.5 -31.5q33 0 52 31.5t19 85.5zM565 626l-384 -663h-53l384 663h53z" />
    <glyph glyph-name="guilsinglleft" unicode="&#x2039;" horiz-adv-x="300" 
d="M260 18q-59 14 -117 72t-93 140q35 81 93 139t117 73v-60q-94 -46 -142 -152q49 -107 142 -153v-59z" />
    <glyph glyph-name="guilsinglright" unicode="&#x203a;" horiz-adv-x="300" 
d="M40 18v59q94 47 142 153q-48 105 -142 152v60q59 -15 117 -73.5t93 -138.5q-35 -81 -93 -139.5t-117 -72.5z" />
    <glyph glyph-name="fraction" unicode="&#x2044;" horiz-adv-x="398" 
d="M20 0l291 565h67l-291 -565h-67z" />
    <glyph glyph-name="Euro" unicode="&#x20ac;" horiz-adv-x="607" 
d="M115 224h-73v55h65q-1 10 -1 32q0 29 2 50h-66v55h76q26 107 95 169q67 60 156 60q103 0 182 -63l-30 -43q-67 42 -138 42q-68 0 -117.5 -44t-68.5 -121h270v-55h-281q-2 -22 -2 -52q0 -21 1 -30h282v-55h-273q18 -81 70.5 -125.5t129.5 -44.5q72 0 137 47l30 -45
q-78 -68 -184 -68q-109 0 -182 75q-60 62 -80 161z" />
    <glyph glyph-name="trademark" unicode="&#x2122;" horiz-adv-x="576" 
d="M25 633h174v-38h-67v-199h-42v199h-65v38zM498 633v-238h-42v178l-58 -178h-48l-58 179v-179h-43v238h63l63 -191l59 191h64z" />
    <glyph glyph-name="Omega" unicode="&#x2126;" horiz-adv-x="603" 
d="M68 0v63h76q-94 93 -94 255q0 160 83 252q69 75 167 75q119 0 189 -98q64 -88 64 -229q0 -163 -94 -255h83v-63h-185v59l9 4q47 20 77.5 93t30.5 168q0 125 -53 195q-46 62 -121 62q-85 0 -132 -80q-41 -68 -41 -177q0 -95 31 -170t77 -92l9 -3v-59h-176z" />
    <glyph glyph-name="partialdiff" unicode="&#x2202;" horiz-adv-x="505" 
d="M114 557l-25 42q65 46 138 46q113 0 175 -95q53 -82 53 -213q0 -146 -46 -239q-54 -110 -164 -110q-99 0 -153 76q-42 57 -42 135q0 95 61 151q52 49 132 49q87 0 136 -63v19q0 121 -54 180q-41 46 -106 46q-55 0 -105 -24zM376 272q-38 66 -120 66q-127 0 -127 -141
q0 -67 31 -107t83 -40q66 0 101 74q27 57 32 148z" />
    <glyph glyph-name="Delta" unicode="&#x2206;" horiz-adv-x="653" 
d="M545 0h-538l230 633h78zM274 556l-165 -495h336z" />
    <glyph glyph-name="product" unicode="&#x220f;" horiz-adv-x="661" 
d="M571 633v-812h-74v748h-333v-748h-74v812h481z" />
    <glyph glyph-name="summation" unicode="&#x2211;" horiz-adv-x="532" 
d="M283 249l-248 313v72h449v-64h-372l252 -317l-239 -370h372v-62h-448v63z" />
    <glyph glyph-name="minus" unicode="&#x2212;" horiz-adv-x="509" 
d="M467 200h-425v55h425v-55z" />
    <glyph glyph-name="radical" unicode="&#x221a;" horiz-adv-x="588" 
d="M75 317l144 41l70 -276l166 618h77l-201 -700h-85l-72 271l-77 -22z" />
    <glyph glyph-name="infinity" unicode="&#x221e;" horiz-adv-x="573" 
d="M281 180q-32 -78 -111 -78q-54 0 -88 35t-34 91q0 54 33 91t80 37q77 0 119 -74q43 75 116 75q55 0 88.5 -35.5t33.5 -93.5q0 -55 -33.5 -90.5t-85.5 -35.5q-41 0 -73.5 21.5t-44.5 56.5zM259 227q-22 66 -90 66q-31 0 -52 -18.5t-21 -46.5q0 -29 20.5 -46.5t54.5 -17.5
q59 0 88 63zM302 229q25 -65 98 -65q30 0 50.5 18.5t20.5 44.5q0 29 -20.5 48t-51.5 19q-33 0 -60 -18t-37 -47z" />
    <glyph glyph-name="integral" unicode="&#x222b;" horiz-adv-x="369" 
d="M329 608l-22 -34q-31 16 -67 16q-62 0 -62 -75v-582q0 -124 -109 -124q-57 0 -109 36l21 35q33 -16 67 -16q63 0 63 75v582q0 124 109 124q57 0 109 -37z" />
    <glyph glyph-name="approxequal" unicode="&#x2248;" horiz-adv-x="483" 
d="M68 91l-26 18q29 88 99 88q36 0 114 -35q62 -28 89 -28q47 0 69 51l28 -18q-24 -87 -88 -87q-34 0 -109 32q-7 3 -23 10q-47 21 -78 21q-45 0 -75 -52zM68 251l-26 18q29 88 99 88q36 0 114 -35q62 -28 89 -28q47 0 69 51l28 -18q-24 -87 -88 -87q-34 0 -109 32
q-7 3 -23 10q-47 21 -78 21q-45 0 -75 -52z" />
    <glyph glyph-name="notequal" unicode="&#x2260;" horiz-adv-x="509" 
d="M155 127h-113v55h147l56 90h-203v55h237l79 127h59l-79 -127h129v-55h-162l-56 -90h218v-55h-252l-79 -127h-60z" />
    <glyph glyph-name="lessequal" unicode="&#x2264;" horiz-adv-x="509" 
d="M93 288l373 -119v-61l-424 142v77l424 152v-61zM467 0h-425v55h425v-55z" />
    <glyph glyph-name="greaterequal" unicode="&#x2265;" horiz-adv-x="509" 
d="M416 288l-373 130v61l424 -152v-77l-424 -142v61zM467 0h-425v55h425v-55z" />
    <glyph glyph-name="uni25CC" unicode="&#x25cc;" horiz-adv-x="428" 
d="M214 645q15 0 15 -15t-15 -15t-15 15t15 15zM152 631q15 0 15 -15q0 -14 -15 -14t-15 14q0 15 15 15zM276 631q15 0 15 -15q0 -14 -15 -14t-15 14q0 15 15 15zM103 598q15 0 15 -15t-15 -15t-15 15t15 15zM326 598q15 0 15 -15t-15 -15q-16 0 -16 15t16 15zM71 548
q14 0 14 -14q0 -15 -14 -15q-15 0 -15 15q0 14 15 14zM358 548q14 0 14 -14q0 -15 -14 -15q-15 0 -15 15q0 14 15 14zM60 491q15 0 15 -16q0 -14 -15 -14t-15 14q0 16 15 16zM369 491q15 0 15 -16q0 -14 -15 -14t-15 14q0 16 15 16zM71 432q14 0 14 -15q0 -13 -14 -13
q-15 0 -15 13q0 15 15 15zM358 432q14 0 14 -15q0 -13 -14 -13q-15 0 -15 13q0 15 15 15zM103 383q15 0 15 -15q0 -14 -15 -14t-15 14q0 15 15 15zM326 383q15 0 15 -15q0 -14 -15 -14q-16 0 -16 14q0 15 16 15zM152 349q15 0 15 -13q0 -16 -15 -16t-15 16q0 13 15 13z
M276 349q15 0 15 -13q0 -16 -15 -16t-15 16q0 13 15 13zM214 337q15 0 15 -16q0 -15 -15 -15t-15 15q0 16 15 16z" />
    <glyph glyph-name="dotcenterar" unicode="&#xe028;" 
d="M41 -10q-41 0 -41 42q0 40 41 40q39 0 39 -40q0 -42 -39 -42z" />
    <glyph glyph-name="uni066E.fina" unicode="&#xe030;" horiz-adv-x="914" 
d="M889 62h35v-62h-43q-90 0 -135 61q-47 -61 -137 -61h-357q-74 0 -118 46.5t-44 125.5v131l67 35v-158q0 -118 110 -118h335q110 0 110 118v213l67 35v-252q0 -114 110 -114z" />
    <glyph glyph-name="rightjoining" unicode="&#xe03d;" horiz-adv-x="146" 
d="M104 0q-86 0 -131 55q-38 47 -38 119v219l67 35v-252q0 -114 110 -114h35v-62h-43z" />
    <glyph glyph-name="ampersandar" unicode="&#xe03e;" horiz-adv-x="792" 
d="M529 75q-3 -176 -183 -176q-81 0 -138 44q-108 83 -108 247q0 209 251 343q-71 54 -71 141q0 55 33 88.5t87 34.5h4q54 0 85.5 -32t31.5 -87q0 -81 -86 -146q257 -134 257 -354q0 -158 -114 -248v28q69 79 69 220q0 205 -253 320q-122 -55 -186 -138q-59 -78 -59 -171
q0 -135 89 -207q49 -37 108 -37q70 0 100 28t31 94q-36 -31 -83 -31q-58 0 -95.5 43.5t-37.5 111.5q0 69 39 113.5t100 44.5t96 -35.5t35 -97.5zM393 555q36 20 57.5 52.5t21.5 66.5t-19.5 54t-51.5 20q-73 0 -73 -72q0 -71 65 -121zM477 209q0 90 -77 90q-38 0 -62 -29.5
t-24 -76.5q0 -46 22.5 -76t57.5 -30q56 0 83 50v72z" />
    <glyph glyph-name="uniE800" unicode="&#xe800;" 
d="M226 891l-23 -48l-189 -34l23 48zM1 727l23 48l188 35l-22 -48zM166 624v47l38 21v-69q0 -25 -17 -41.5t-43 -16.5t-41 15q-16 -15 -42 -15t-43 16.5t-17 41.5v25l38 21v-45q0 -22 23 -22q22 0 22 19v40l38 21v-61q0 -19 22 -19t22 22z" />
    <glyph glyph-name="uniFBB2" unicode="&#xfbb2;" 
d="M41 618q-41 0 -41 42q0 40 41 40q39 0 39 -40q0 -42 -39 -42z" />
    <glyph glyph-name="uniFBB3" unicode="&#xfbb3;" 
d="M41 -203q-41 0 -41 42q0 40 41 40q39 0 39 -40q0 -42 -39 -42z" />
    <glyph glyph-name="uniFBB4" unicode="&#xfbb4;" 
d="M41 633q-41 0 -41 42q0 40 41 40q39 0 39 -40q0 -42 -39 -42zM155 633q-41 0 -41 42q0 40 41 40q39 0 39 -40q0 -42 -39 -42z" />
    <glyph glyph-name="uniFBB5" unicode="&#xfbb5;" 
d="M41 -198q-41 0 -41 42q0 40 41 40q39 0 39 -40q0 -42 -39 -42zM155 -198q-41 0 -41 42q0 40 41 40q39 0 39 -40q0 -42 -39 -42z" />
    <glyph glyph-name="uniFBB6" unicode="&#xfbb6;" 
d="M97 680q-37 0 -37 38q0 37 37 37q36 0 36 -37q0 -38 -36 -38zM41 576q-41 0 -41 42q0 40 41 40q39 0 39 -40q0 -42 -39 -42zM155 576q-41 0 -41 42q0 40 41 40q39 0 39 -40q0 -42 -39 -42z" />
    <glyph glyph-name="uniFBB7" unicode="&#xfbb7;" 
d="M41 -189q39 0 39 -40q0 -42 -39 -42q-41 0 -41 42q0 40 41 40zM155 -189q39 0 39 -40q0 -42 -39 -42q-41 0 -41 42q0 40 41 40zM97 -92q36 0 36 -37t-36 -37q-37 0 -37 37t37 37z" />
    <glyph glyph-name="uniFD3E" unicode="&#xfd3e;" horiz-adv-x="389" 
d="M273 -64q-110 68 -167 181q-46 94 -46 201q0 122 61 226q55 95 152 154v-59q-68 -55 -106.5 -138.5t-40.5 -179.5q0 -204 147 -326v-59z" />
    <glyph glyph-name="uniFD3F" unicode="&#xfd3f;" horiz-adv-x="389" 
d="M114 -64v59q70 57 108.5 141.5t38.5 179.5q0 97 -39 182.5t-108 140.5v59q111 -67 168 -181q46 -94 46 -201q0 -122 -61 -226q-56 -95 -153 -154z" />
    </font>
</defs>
</svg>
